Драма ревности: Все детали в хронике / Ревность по-итальянски / Dramma della gelosia (tutti i particolari in cronaca) (Этторе Скола / Ettore Scola) [1970, Италия, Испания, комедия, драма, DVDRip] MVO (телеканал "Россия")


Статистика раздачи [Обновить пиров]
Размер:  1.41 GB   |    Зарегистрирован:  1 год 2 месяца   |    Скачан:  0 раз

Полного источника не было: Никогда

 
   
 
 
 

[Цитировать]

Драма ревности / Ревность по-итальянски / Dramma della gelosia (tutti i particolari in cronaca)
Страна: Италия, Испания
Жанр: Комедия, драма
Год выпуска: 1970
Продолжительность: 01:42:04
Перевод: Профессиональный (многоголосый закадровый) телеканал "Россия"
Cубтитры: нет
Оригинальная аудиодорожка: нет
Режиссер: Этторе Скола / Ettore Scola
В ролях: Марчелло Мастроянни, Моника Витти, Джанкарло Джаннини, Мануэль Зарзо, Мариза Мерлини, Фернандо Санчес Полак
Описание: В США эта картина демонстрировалась под названием “Пицца-треугольник”, что придавало особый шарм и пикантность фарсовой истории любви к одной женщине, продавщице цветов Аделаиде, сразу двух мужчин - Оресте, безработного коммуниста, и Нелло, южанина-служащего пиццерии. Пожалуй, это был первый фильм в то время уже 39-летнего режиссёра Этторе Сколы, который получил международную известность, особенно после показа на Каннском фестивале, где Марчелло Мастроянни, сыгравший неудачливого и ревнивого левака Оресте, завоевал приз за лучшую мужскую роль.
Доп. информация: Релиз
Большое спасибо за предоставленную видеокассету yanina.tet
Оцифровка кассеты и синхронизация звука Urasiko
Рип взят с раздачи http://teatrix.ru/viewtopic.php?t=7068
Сэмпл: http://multi-up.com/1058088
Качество видео: DVDRip
Формат видео: AVI
Видео: DivX, 688x368 (1.87:1), 25 fps, 1781 kbps avg, 0.28 bit/pixe
Аудио: AC-3, 48 KHz, 192 Kbps, 2 channels

MediaInfo

General
Complete name : F:\Revnost Po Italiano Russia.avi
Format : AVI
Format/Info : Audio Video Interleave
File size : 1.41 GiB
Duration : 1h 42mn
Overall bit rate : 1 983 Kbps
Movie name : Dramma della gelosia - tutti i particolari in cronaca
Writing application : VirtualDubMod 1.5.10.2 (build 2540/release)
Writing library : VirtualDubMod build 2540/release
Video
ID : 0
Format : MPEG-4 Visual
Format settings, BVOP : No
Format settings, QPel : No
Format settings, GMC : No warppoints
Format settings, Matrix : Default (H.263)
Codec ID : DX50
Codec ID/Hint : DivX 5
Duration : 1h 42mn
Bit rate : 1 781 Kbps
Width : 688 pixels
Height : 368 pixels
Display aspect ratio : 1.85:1
Frame rate : 25.000 fps
Color space : YUV
Chroma subsampling : 4:2:0
Bit depth : 8 bits
Scan type : Progressive
Compression mode : Lossy
Bits/(Pixel*Frame) : 0.281
Stream size : 1.27 GiB (90%)
Writing library : DivX 5.2.1 (DrDivX 106) (UTC 2004-09-08)
Audio
ID : 1
Format : AC-3
Format/Info : Audio Coding 3
Mode extension : CM (complete main)
Format settings, Endianness : Big
Codec ID : 2000
Duration : 1h 42mn
Bit rate mode : Constant
Bit rate : 192 Kbps
Channel(s) : 2 channels
Channel positions : Front: L R
Sampling rate : 48.0 KHz
Bit depth : 16 bits
Compression mode : Lossy
Stream size : 140 MiB (10%)
Alignment : Split accross interleaves
Interleave, duration : 40 ms (1.00 video frame)
Interleave, preload duration : 500 ms

Скриншот c названием фильма

Скриншоты

[teatrix.ru].t5732.torrent 
Торрент: Зарегистрирован [ 2015-10-09 00:55 ] · 97E83427C7C055130DA71B516CA51779483F4714

Скачать .torrent

Скачать

15 KB

Статус: проверено
Скачан: 0 раз
Размер: 1.41 GB
terms.php



Быстрый ответ

Имя:

      
Для отправки сообщений необходимо включить JavaScript
Показать сообщения:    

Текущее время: 10-Дек 15:47

Часовой пояс: UTC + 3


Вы можете начинать темы
Вы можете отвечать на сообщения
Вы не можете редактировать свои сообщения
Вы не можете удалять свои сообщения
Вы не можете голосовать в опросах
Вы не можете прикреплять файлы к сообщениям
Вы можете скачивать файлы