Хэппи энд / Счастливый конец / Happy End (Бьерн Рунге / Björn Runge) [2011, Швеция, Дания, мелодрама, драма, DVDRip] Sub Rus + Original Swe


Статистика раздачи [Обновить пиров]
Размер:  1.36 GB   |    Зарегистрирован:  1 год 1 месяц   |    Скачан:  1 раз

Полного источника не было: 4 месяца 5 дней

 
   
 
 
 

[Цитировать]

Хэппи энд / Счастливый конец / Happy End
Страна: Швеция, Дания
Жанр: мелодрама, драма
Год выпуска: 2011
Продолжительность: 01:33:08
Перевод: Субтитры Ali+sher
Cубтитры: русские
Оригинальная аудиодорожка: шведский
Режиссер: Бьерн Рунге/Björn Runge
В ролях: Анн Петрен, Малин Буска, Густаф Скарсгорд, Юхан Видерберг, Петер Андерссон
Описание: Это история о людях, стоящих на перепутье. История о Йонне, инструкторе по вождению, о её сыне Петере, художнике, пытавшимся покончить с собой за два месяца до собственной свадьбы, о Катрине, вынужденной делать уборку в домах чужих людей, чтобы заработать...
Сэмпл: http://rusfolder.com/43928969
Качество видео: DVDRip
Формат видео: AVI
Видео: 720x388 (1.86:1), 25 fps, XviD build 50 ~1626 kbps avg, 0.23 bit/pixel
Аудио: 48 kHz, AC3 Dolby Digital, 3/2 (L,C,R,l,r) + LFE ch, ~448 kbps
Формат субтитров: softsub (SRT)

Пример субтитров

28
00:04:01,269 --> 00:04:03,658
Привет, любимая.
29
00:04:03,790 --> 00:04:06,019
Привет.
30
00:04:09,429 --> 00:04:12,386
Я не успел зайти в магазин.
Прости.
31
00:04:49,063 --> 00:04:53,453
Вы не могли бы оставить нас на минутку,
чтобы мы могли поговорить?
32
00:05:04,821 --> 00:05:08,129
Как ты?
33
00:05:14,139 --> 00:05:16,368
Нина...
34
00:05:27,337 --> 00:05:29,612
Вот, возьми.
35
00:05:38,696 --> 00:05:41,050
Что случилось?
36
00:05:42,095 --> 00:05:47,009
Петер. Вы не могли бы с ним поговорить?
37
00:05:48,374 --> 00:05:51,410
Да, да, конечно.
38
00:05:53,093 --> 00:05:56,210
Он перестал есть.
39
00:05:56,333 --> 00:05:59,769
Не спит по ночам...
40
00:06:00,892 --> 00:06:04,407
- Он рисует?
- Нет.

MediaInfo

General
Complete name : C:\Film\Happy.End.2011.Swesub.DVDrip.Xvid.AC3-Haggebulle\Happy.End.2011.Swesub.DVDrip.Xvid.AC3-Haggebulle.avi
Format : AVI
Format/Info : Audio Video Interleave
File size : 1.36 GiB
Duration : 1h 33mn
Overall bit rate : 2 085 Kbps
Movie name : Happy.End.2011.Swesub.DVDrip.Xvid.AC3-Haggebulle
Writing application : Lavf52.33.0
Original source form/Name : HAPPY_END
Video
ID : 0
Format : MPEG-4 Visual
Format profile : Simple@L3
Format settings, BVOP : No
Format settings, QPel : No
Format settings, GMC : No warppoints
Format settings, Matrix : Default (H.263)
Codec ID : DX50
Codec ID/Hint : DivX 5
Duration : 1h 33mn
Bit rate : 1 626 Kbps
Width : 720 pixels
Height : 388 pixels
Display aspect ratio : 1.85:1
Frame rate : 25.000 fps
Color space : YUV
Chroma subsampling : 4:2:0
Bit depth : 8 bits
Scan type : Progressive
Compression mode : Lossy
Bits/(Pixel*Frame) : 0.233
Stream size : 1.06 GiB (78%)
Writing library : XviD 1.2.1 (UTC 2008-12-04)
Audio
ID : 1
Format : AC-3
Format/Info : Audio Coding 3
Mode extension : CM (complete main)
Format settings, Endianness : Big
Codec ID : 2000
Duration : 1h 33mn
Bit rate mode : Constant
Bit rate : 448 Kbps
Channel(s) : 6 channels
Channel positions : Front: L C R, Side: L R, LFE
Sampling rate : 48.0 KHz
Bit depth : 16 bits
Compression mode : Lossy
Stream size : 298 MiB (21%)
Alignment : Aligned on interleaves
Interleave, duration : 32 ms (0.80 video frame)
Interleave, preload duration : 32 ms

Скриншот c названием фильма

Скриншоты





[teatrix.ru].t5733.torrent 
Торрент: Зарегистрирован [ 2015-10-09 00:55 ] · 986471288D91B273B928B781268EEB9AC9FA7F58

Скачать .torrent

Скачать

14 KB

Статус: проверено
Скачан: 1 раз
Размер: 1.36 GB
terms.php



Быстрый ответ

Имя:

      
Для отправки сообщений необходимо включить JavaScript
Показать сообщения:    

Текущее время: 02-Дек 21:13

Часовой пояс: UTC + 3


Вы можете начинать темы
Вы можете отвечать на сообщения
Вы не можете редактировать свои сообщения
Вы не можете удалять свои сообщения
Вы не можете голосовать в опросах
Вы не можете прикреплять файлы к сообщениям
Вы можете скачивать файлы