Цю Цзю идет в суд / Цю Цзю обращается в суд / The Story of Qiu Ju / Qiu Ju da guan si (Чжан Имоу / Zhang Yimou) [1992, Китай, Гонконг, драма, комедия, экранизация, DVB-AVC] MVO (Kino Polska)


Статистика раздачи [Обновить пиров]
Размер:  845 MB   |    Зарегистрирован:  1 год 2 месяца   |    Скачан:  0 раз

Полного источника не было: Никогда

 
   
 
 
 

[Цитировать]

Цю Цзю идет в суд
The Story of Qiu Ju- Страна: Китай, Гонконг
Жанр: драма, комедия, экранизация
Год выпуска: 1992
Продолжительность: 01:40:14Перевод: Профессиональный (многоголосый закадровый) по заказу Kino Polska на производственно-технической базе Студии "Акцент"
Cубтитры: нет
Режиссер: Чжан Имоу / Zhang Yimou
В ролях: Гун Ли, Лью Пэйци, Лючунь Ян, Кэшэн Лэй, Чжицзюнь Гэ, Ваньцин Чжу, Ловэнь Цуй, Хойцинь Ян, Цзяньфа Ван, Зи Лин
Описание: По роману Йуана Бин Чена / Yuan Bin Chen "The Wan Family's Lawsuit".
Фильм посвящен 50-летию образования КНР и повествует о том, как главная героиня крестьянка Цю Цзю судилась с властями. Деревенский староста, толкнув ее мужа, сломал ему ребро, в результате чего тот две недели не мог работать, и упрямая крестьянка, не удовлетворившись решением местной администрации и материальной компенсацией, решила обратиться в суд и добиться справедливости.
Доп. информация: Filmbox Arthouse IPTV
Награды: 5 наград Venice Film Festival 1992 ("Золотой лев", лучшая женская роль - Li Gong, "Кубок Вольпи" лучшей актрисе - Li Gong, премия UNICEF, премия OCIC); включен в ТОП иностранных фильмов National Board of Review, USA 1993; номинация на лучший иностранный фильм Independent Spirit Awards 1994; др. награды.

Качество видео: DVB-AVC
Формат видео: MKV
Видео: AVC (H.264), 720x576@1024x576 (16:9), 25 fps, ~1028 kbps avg, 0.099 bit/pixel
Аудио: MPEG Audio 2, 2 ch, 48 kHz, ~128.00 kbps avg

MediaInfo

ОбщееУникальный идентификатор : 241236556141760289945171854972334511767 (0xB57C7880CE64208BABBE8DC9CDA61697)Полное имя : F:\My Torrents 3\[apreder]The_Story_of_Qiu_Ju(1992)DVB.mkvФормат : MatroskaВерсия формата : Version 2Размер файла : 845 МбайтПродолжительность : 1 ч. 40 м.Общий поток : 1179 Кбит/секДата кодирования : UTC 2015-07-05 18:24:14Программа кодирования : mkvmerge v8.1.0 ('Psychedelic Postcard') 64bitБиблиотека кодирования : libebml v1.3.1 + libmatroska v1.4.2Attachements : cover.jpg / cover_small.jpg
ВидеоИдентификатор : 2Формат : AVCФормат/Информация : Advanced Video CodecПрофиль формата : Main@L3Параметр CABAC формата : ДаПараметр ReFrames формата : 3 кадраИдентификатор кодека : V_MPEG4/ISO/AVCПродолжительность : 1 ч. 40 м.Битрейт : 1028 Кбит/секШирина : 720 пикселейВысота : 576 пикселейСоотношение сторон : 16:9Соотношение сторон в оригинале : 16:9Режим частоты кадров : ПостоянныйЧастота кадров : 25,000 кадров/секСтандарт вещания : ComponentЦветовое пространство : YUVСубдискретизация насыщенности : 4:2:0Битовая глубина : 8 битТип развёртки : ЧересстрочнаяПорядок развёртки : Верхнее поле первоеБит/(Пиксели*Кадры) : 0.099Размер потока : 737 Мбайт (87%)Default : ДаForced : Нетcolour_range : LimitedОсновные цвета : BT.601 PALХарактеристики трансфера : BT.470 System B, BT.470 System GКоэффициенты матрицы : BT.601
АудиоИдентификатор : 1Формат : MPEG AudioВерсия формата : Version 1Профиль формата : Layer 2Идентификатор кодека : A_MPEG/L2Идентификатор кодека/Подсказка : MP2Продолжительность : 1 ч. 40 м.Вид битрейта : ПостоянныйБитрейт : 128 Кбит/секКаналы : 2 каналаЧастота : 48,0 КГцМетод сжатия : С потерямиЗадержка видео : -12 мс.Размер потока : 91,8 Мбайт (11%)Язык : RussianDefault : ДаForced : Нет

Скриншот c названием фильма

Скриншоты


Резервные скриншоты


-[2'438]
[teatrix.ru].t5737.torrent 
Торрент: Зарегистрирован [ 2015-10-09 00:55 ] · 7A1B2C6D9B6A67CC55EB16E005246A03D2502D8E

Скачать .torrent

Скачать

17 KB

Статус: проверено
Скачан: 0 раз
Размер: 845 MB
terms.php



Быстрый ответ

Имя:

      
Для отправки сообщений необходимо включить JavaScript
Показать сообщения:    

Текущее время: 09-Дек 14:40

Часовой пояс: UTC + 3


Вы можете начинать темы
Вы можете отвечать на сообщения
Вы не можете редактировать свои сообщения
Вы не можете удалять свои сообщения
Вы не можете голосовать в опросах
Вы не можете прикреплять файлы к сообщениям
Вы можете скачивать файлы