Река / The River / He liu (Цай Мин-Лянь / Tsai Ming-Liang) [1997, Тайвань, драма, гей-тема, DVB-AVC] DVO (Kino Polska)


Статистика раздачи [Обновить пиров]
Размер:  671 MB   |    Зарегистрирован:  1 год 1 месяц   |    Скачан:  0 раз

Полного источника не было: Никогда

 
   
 
 
 

[Цитировать]

Река
The River- Страна: Тайвань
Жанр: драма, гей-тема
Год выпуска: 1997
Продолжительность: 01:50:34Перевод: Профессиональный (двухголосый закадровый) по заказу Kino Polska на производственно-технической базе Студии "Акцент"
Cубтитры: нет
Режиссер: Цай Мин-Лянь / Tsai Ming-Liang
В ролях: Мяо Тьен / Tien Miao (Father), Кан-шен Ли / Kang-sheng Lee (Kang-Sheng), И-чин Лу / Yi-Ching Lu (Mother)
Описание: Молодой герой "Реки" столь же нелюдим и бессловесен, как и персонажи предыдущих лент Цая, но к экзистенциальному мотиву добавляется новый - экологический. Герой заболевает непонятной болезнью, после того, как поплавал в грязной реке, изображая для киносьемок тело утопленника. В обобщенном виде тема фильма - экология человеческих отношений, загрязненных фальшью и равнодушием... Еще один мотив, обязательный для Цая - в его фильмах все течет. В доме, где живет герой, протекает крыша, и никакие ухищрения водопроводчиков не могут поправить дело. Точно так же обитатели дома не в состоянии преодолеть течь взаимного отчуждения. Муж и отец не общается ни с женой, ни с сыном и ищет анонимной любви в гей-саунах, пока однажды не встречает там собственного отпрыска. В финале "Реки" происходит чудо - юный герой, проснувшись, вдруг впервые за долгие дни разгибает шею, а за окном прекращается ненавистный дождь. Замедленный ритм фильма в сочетании с шокирующими сценами вызвал защитную реакцию берлинской публики, которая порой не знала, то ли плакать, то ли смеяться.
Доп. информация: Filmbox Arthouse IPTV. На территории РФ возрастное ограничение 18+.
Награды: приз "Серебряный медведь" Berlin International Film Festival 1997 + номинация на "Золотой медведь"; приз "Серебряный Хьюго" Chicago International Film Festival 1997 + номинация на "Золотой Хьюго"; приз канала Channel 4 лучшему режиссеру Edinburgh International Film Festival 1997; др. награды.

Качество видео: DVB-AVC
Формат видео: MKV
Видео: AVC (H.264), 720x576@1024x576 (16:9), 25 fps, ~703 kbps avg, 0.068 bit/pixel
Аудио: MPEG Audio 2, 2 ch, 48 kHz, ~128.00 kbps avg

MediaInfo

ОбщееУникальный идентификатор : 223444617095743860250884584252329706430 (0xA819DE2E8AE6203FBCDC16FECE2C43BE)Полное имя : F:\My Torrents 3\[apreder]The_River(1997)DVB.mkvФормат : MatroskaВерсия формата : Version 2Размер файла : 671 МбайтПродолжительность : 1 ч. 50 м.Общий поток : 848 Кбит/секДата кодирования : UTC 2015-07-04 10:43:52Программа кодирования : mkvmerge v8.1.0 ('Psychedelic Postcard') 64bitБиблиотека кодирования : libebml v1.3.1 + libmatroska v1.4.2Attachements : cover.jpg / cover_small.jpg
ВидеоИдентификатор : 2Формат : AVCФормат/Информация : Advanced Video CodecПрофиль формата : Main@L3Параметр CABAC формата : ДаПараметр ReFrames формата : 3 кадраИдентификатор кодека : V_MPEG4/ISO/AVCПродолжительность : 1 ч. 50 м.Битрейт : 703 Кбит/секШирина : 720 пикселейВысота : 576 пикселейСоотношение сторон : 16:9Соотношение сторон в оригинале : 16:9Режим частоты кадров : ПостоянныйЧастота кадров : 25,000 кадров/секСтандарт вещания : ComponentЦветовое пространство : YUVСубдискретизация насыщенности : 4:2:0Битовая глубина : 8 битТип развёртки : ПрогрессивнаяПорядок развёртки : Верхнее поле первоеБит/(Пиксели*Кадры) : 0.068Размер потока : 556 Мбайт (83%)Default : ДаForced : Нетcolour_range : LimitedОсновные цвета : BT.601 PALХарактеристики трансфера : BT.470 System B, BT.470 System GКоэффициенты матрицы : BT.601
АудиоИдентификатор : 1Формат : MPEG AudioВерсия формата : Version 1Профиль формата : Layer 2Идентификатор кодека : A_MPEG/L2Идентификатор кодека/Подсказка : MP2Продолжительность : 1 ч. 50 м.Вид битрейта : ПостоянныйБитрейт : 128 Кбит/секКаналы : 2 каналаЧастота : 48,0 КГцМетод сжатия : С потерямиЗадержка видео : -15 мс.Размер потока : 101 Мбайт (15%)Язык : RussianDefault : ДаForced : Нет

Скриншот c названием фильма

Скриншоты


Резервные скриншоты


-[2'418]
[teatrix.ru].t5741.torrent 
Торрент: Зарегистрирован [ 2015-10-09 00:55 ] · BD398BDD9409942BFA132E22D044D7417923380A

Скачать .torrent

Скачать

14 KB

Статус: проверено
Скачан: 0 раз
Размер: 671 MB
terms.php



Быстрый ответ

Имя:

      
Для отправки сообщений необходимо включить JavaScript
Показать сообщения:    

Текущее время: 05-Дек 03:31

Часовой пояс: UTC + 3


Вы можете начинать темы
Вы можете отвечать на сообщения
Вы не можете редактировать свои сообщения
Вы не можете удалять свои сообщения
Вы не можете голосовать в опросах
Вы не можете прикреплять файлы к сообщениям
Вы можете скачивать файлы