Озеро / Un Lac (Филипп Гранрийе / Philippe Grandrieux) [2008, Франция, драма, экспериментальный, DVDRip] VO + Original Fre + Sub Rus


Статистика раздачи [Обновить пиров]
Размер:  1.48 GB   |    Зарегистрирован:  1 год 1 месяц   |    Скачан:  0 раз

Полного источника не было: Никогда

 
   
 
 
 

[Цитировать]

Озеро / Un Lac-- Год выпуска: 2008
Страна: Франция
Жанр: Драма, Экспериментальный
Продолжительность: 1:24:41
Перевод: Профессиональный (одноголосый закадровый)
Русские субтитры: есть
Оригинальная аудиодорожка: французский--Режиссер: Филипп Гранрийе / Philippe Grandrieux
В ролях: Дмитрий Кубасов, Натали Рехорова, Алексей Солончев, Симона Хульсеманн, Виталий Кищенко, Артур Семай--Описание: Они жили в заснеженных горных вершинах среди дремучего леса на большом расстоянии от цивилизованного мира. Рядом с ними находилось красивое озеро, которое придавало этой местности еще большего живописного очарования. В состав этой семьи входили два брата, сестра и мать, которая потеряла зрение. Иногда навещал их и родной отец, проживающий в городе. Один из братьев был тяжело болен. Часто повторяющие приступы эпилепсии очень беспокоили его. Их уединенная от цивилизации жизнь породила между ними такие же странные семейные отношения, ничем не напоминающие современный цивилизованный мир. Но это так называемое благополучие будет существовать недолго...--Доп. информация: Спасибо rulle1 за исходный DVD--Качество: DVDRip
Формат: AVI
Видео: XviD, 720х384, 2102 Кбит/сек, 25,000 кадр/сек
Аудио 1: AC-3, 192 Кбит/сек, 2 канала, 48,0 КГц - русский
Аудио 2: AC-3, 192 Кбит/сек, 2 канала, 48,0 КГц - оригинал
Формат субтитров: srt

MediaInfo

Общее
Полное имя : Озеро (Un lac).avi
Формат : AVI
Формат/Информация : Audio Video Interleave
Размер файла : 1,48 Гбайт
Продолжительность : 1 ч. 24 м.
Общий поток : 2500 Кбит/сек
Программа кодирования : VirtualDubMod 1.5.10.3 | www.virtualdub-fr.org || (build 2550/release)
Библиотека кодирования : VirtualDubMod build 2550/release
Видео
Идентификатор : 0
Формат : MPEG-4 Visual
Профиль формата : Advanced Simple@L5
Параметр BVOP формата : 2
Параметр QPel формата : Нет
Параметр GMC формата : Без точки перехода
Параметр матрицы формата : Default (MPEG)
Идентификатор кодека : XVID
Идентификатор кодека/Подсказка : XviD
Продолжительность : 1 ч. 24 м.
Битрейт : 2102 Кбит/сек
Ширина : 720 пикселей
Высота : 384 пикселя
Соотношение сторон : 1,85:1
Частота кадров : 25,000 кадров/сек
Цветовое пространство : YUV
Субдискретизация насыщенности : 4:2:0
Битовая глубина : 8 бит
Тип развёртки : Прогрессивная
Метод сжатия : С потерями
Бит/(Пиксели*Кадры) : 0.304
Размер потока : 1,25 Гбайт (84%)
Библиотека кодирования : XviD 73
Аудио #1
Идентификатор : 1
Формат : AC-3
Формат/Информация : Audio Coding 3
Расширение режима : CM (complete main)
Параметр Endianness формата : Big
Идентификатор кодека : 2000
Продолжительность : 1 ч. 24 м.
Вид битрейта : Постоянный
Битрейт : 192 Кбит/сек
Каналы : 2 канала
Расположение каналов : Front: L R
Частота : 48,0 КГц
Метод сжатия : С потерями
Размер потока : 116 Мбайт (8%)
Выравнивание : Разделение по промежуткам
Продолжительность промежутка : 40 мс. (1,00 видеокадр)
Время предзагрузки промежутка : 500 мс.
Аудио #2
Идентификатор : 2
Формат : AC-3
Формат/Информация : Audio Coding 3
Расширение режима : CM (complete main)
Параметр Endianness формата : Big
Идентификатор кодека : 2000
Продолжительность : 1 ч. 24 м.
Вид битрейта : Постоянный
Битрейт : 192 Кбит/сек
Каналы : 2 канала
Расположение каналов : Front: L R
Частота : 48,0 КГц
Метод сжатия : С потерями
Размер потока : 116 Мбайт (8%)
Выравнивание : Разделение по промежуткам
Продолжительность промежутка : 40 мс. (1,00 видеокадр)
Время предзагрузки промежутка : 500 мс.

2 июля 2015 года торрент перезалит! Замена на рип с более качественного исходника!
[teatrix.ru].t5742.torrent 
Торрент: Зарегистрирован [ 2015-10-09 00:55 ] · 2F55FF25A5C83C3F5CCF87FF1707E65C6022623F

Скачать .torrent

Скачать

15 KB

Статус: проверено
Скачан: 0 раз
Размер: 1.48 GB
terms.php



Быстрый ответ

Имя:

      
Для отправки сообщений необходимо включить JavaScript
Показать сообщения:    

Текущее время: 03-Дек 14:35

Часовой пояс: UTC + 3


Вы можете начинать темы
Вы можете отвечать на сообщения
Вы не можете редактировать свои сообщения
Вы не можете удалять свои сообщения
Вы не можете голосовать в опросах
Вы не можете прикреплять файлы к сообщениям
Вы можете скачивать файлы