Уютные норки / Норки / Pelisky (Ян Гржебейк / Jan Hrebejk) [1999, Чехия, драма, комедия, HDRip] VO


 

[Цитировать]

Уютные норки / Норки / Pelisky«One villa - two families - three generations»- Страна: Чехия
Жанр: Драма, комедия
Год выпуска: 1999
Продолжительность: 02:00:54-Перевод: Одноголосый закадровый
Cубтитры: нет-Режиссер: Ян Гржебейк / Jan Hrebejk-В ролях: Майкл Беран, Мирослав Донутил, Симона Сташова, Кристина Новакова, Иржи Кодет, Ева Голубова, Эмилия Васарьова, Болек Поливка, Ярослав Душек, Стелла Зазворкова-Описание: В небольшом доме на окраине Праги соседствуют две семьи. Глава семьи Себеков — высокий военный чин, симпатизирующий коммунистам. Старший же Краус — ветеран чешского сопротивления и настоящий патриот своей страны. И пока взрослые сражаются за свои идеалы, юный Михал Собек, похоже, влюбился в симпатичную Индришку Краус, мысли которой, впрочем, заняты кем-то другим.-Sample | IMDB | КиноПоиск-Тип релиза: HDRip [исх. BDRip 720p]
Формат видео: AVI-Видео: 720x416 (1.73:1), 23.976 fps, XviD build 50, 1501 kbps avg, 0.21 bit/pixel
Аудио: 48 kHz, AC3 Dolby Digital, 2/0 (L,R) ch, 224.00 kbps avg [Russian_VO]-

MediaInfo

General
Complete name : D:\Мои релизы\Pelisky_HDRip_RG_All_Films.avi
Format : AVI
Format/Info : Audio Video Interleave
File size : 1.47 GiB
Duration : 2h 0mn
Overall bit rate : 1 735 Kbps
Writing application : VirtualDubMod 1.5.10.3 | www.virtualdub-fr.org || (build 2550/release)
Writing library : VirtualDubMod build 2550/release
Video
ID : 0
Format : MPEG-4 Visual
Format profile : Advanced Simple@L5
Format settings, BVOP : Yes
Format settings, QPel : No
Format settings, GMC : No warppoints
Format settings, Matrix : Custom
Codec ID : XVID
Codec ID/Hint : XviD
Duration : 2h 0mn
Bit rate : 1 502 Kbps
Width : 720 pixels
Height : 416 pixels
Display aspect ratio : 16:9
Frame rate : 23.976 fps
Color space : YUV
Chroma subsampling : 4:2:0
Bit depth : 8 bits
Scan type : Progressive
Compression mode : Lossy
Bits/(Pixel*Frame) : 0.209
Stream size : 1.27 GiB (87%)
Writing library : XviD 1.2.1 (UTC 2008-12-04)
Audio
ID : 1
Format : AC-3
Format/Info : Audio Coding 3
Mode extension : CM (complete main)
Codec ID : 2000
Duration : 2h 0mn
Bit rate mode : Constant
Bit rate : 224 Kbps
Channel(s) : 2 channels
Channel positions : Front: L R
Sampling rate : 48.0 KHz
Bit depth : 16 bits
Compression mode : Lossy
Stream size : 194 MiB (13%)
Alignment : Split accross interleaves
Interleave, duration : 42 ms (1.00 video frame)
Interleave, preload duration : 500 ms

Скриншоты




Показать сообщения:    

Текущее время: 02-Дек 23:04

Часовой пояс: UTC + 3


Вы не можете начинать темы
Вы не можете отвечать на сообщения
Вы не можете редактировать свои сообщения
Вы не можете удалять свои сообщения
Вы не можете голосовать в опросах
Вы не можете прикреплять файлы к сообщениям
Вы не можете скачивать файлы