100 минут Славы / 100 minuta slave (Далибор Матанич / Dalibor Matanic) [2004, Хорватия, драма, биография, DVDRip] VO (Петр Титов) + Original


Статистика раздачи [Обновить пиров]
Размер:  792 MB   |    Зарегистрирован:  1 год 1 месяц   |    Скачан:  0 раз

Полного источника не было: 5 месяцев 17 дней

 
   
 
 
 

[Цитировать]

100 минут Славы / 100 minuta slave
Страна: Хорватия
Жанр: драма, биография
Год выпуска: 2004
Продолжительность: 01:36:52
Перевод: Одноголосый любительский (Петр Титов)
Cубтитры: нет
Оригинальная аудиодорожка: Хорватский
Режиссер: Далибор Матанич / Dalibor Matanic
В ролях: Саня Вейнович, Мики Манойлович, Вили Матула, Крунослав Сарич, Люка Петрусик, Майя Анусич
Описание: Биографический фильм о взаимоотношениях хорватской аквалеристки Славы Рашкай с художником и преподавателем живописи Белой Чикош-Сесией.
Сэмпл: https://www.sendspace.com/file/l39zs7
Качество видео: DVDRip
Формат видео: AVI
Видео: Xvid 640x368 25fps [Video], 881 Kbps
Аудио 1: MP3 44100Hz stereo 128kbps
Аудио 2: MP3 48000Hz stereo 128kbps (оригинал)

MediaInfo

General
Complete name : C:\скаченное\фильмы\100 минут славы\100 минут Славы.avi
Format : AVI
Format/Info : Audio Video Interleave
File size : 792 MiB
Duration : 1h 36mn
Overall bit rate mode : Variable
Overall bit rate : 1 143 Kbps
Writing application : VirtualDubMod 1.5.10.2 (build 2540/release)
Writing library : VirtualDubMod build 2540/release
Video
ID : 0
Format : MPEG-4 Visual
Format profile : Advanced Simple@L5
Format settings, BVOP : 1
Format settings, QPel : No
Format settings, GMC : No warppoints
Format settings, Matrix : Default (H.263)
Muxing mode : Packed bitstream
Codec ID : XVID
Codec ID/Hint : XviD
Duration : 1h 36mn
Bit rate : 881 Kbps
Width : 640 pixels
Height : 368 pixels
Display aspect ratio : 1.739
Frame rate : 25.000 fps
Color space : YUV
Chroma subsampling : 4:2:0
Bit depth : 8 bits
Scan type : Progressive
Compression mode : Lossy
Bits/(Pixel*Frame) : 0.150
Stream size : 610 MiB (77%)
Writing library : XviD 1.2.0.dev47 (UTC 2006-11-01)
Audio #1
ID : 1
Format : MPEG Audio
Format version : Version 1
Format profile : Layer 3
Codec ID : 55
Codec ID/Hint : MP3
Duration : 1h 36mn
Bit rate mode : Constant
Bit rate : 128 Kbps
Channel(s) : 2 channels
Sampling rate : 44.1 KHz
Compression mode : Lossy
Stream size : 88.7 MiB (11%)
Alignment : Split accross interleaves
Interleave, duration : 40 ms (1.00 video frame)
Interleave, preload duration : 500 ms
Language : Hrvatski
Audio #2
ID : 2
Format : MPEG Audio
Format version : Version 1
Format profile : Layer 3
Mode : Joint stereo
Mode extension : MS Stereo
Codec ID : 55
Codec ID/Hint : MP3
Duration : 1h 36mn
Bit rate mode : Variable
Bit rate : 116 Kbps
Nominal bit rate : 128 Kbps
Channel(s) : 2 channels
Sampling rate : 48.0 KHz
Compression mode : Lossy
Stream size : 80.7 MiB (10%)
Alignment : Aligned on interleaves
Interleave, duration : 24 ms (0.60 video frame)
Interleave, preload duration : 534 ms
Writing library : LAME3.97
Encoding settings : -m j -V 4 -q 2 -lowpass 17 --abr 128

Скриншот c названием фильма

Скриншоты



[teatrix.ru].t5746.torrent 
Торрент: Зарегистрирован [ 2015-10-09 00:55 ] · 2E8EF0F9F1286D1C5ACD2ED6000BD2853EF6D903

Скачать .torrent

Скачать

16 KB

Статус: проверено
Скачан: 0 раз
Размер: 792 MB
terms.php



Быстрый ответ

Имя:

      
Для отправки сообщений необходимо включить JavaScript
Показать сообщения:    

Текущее время: 03-Дек 03:19

Часовой пояс: UTC + 3


Вы можете начинать темы
Вы можете отвечать на сообщения
Вы не можете редактировать свои сообщения
Вы не можете удалять свои сообщения
Вы не можете голосовать в опросах
Вы не можете прикреплять файлы к сообщениям
Вы можете скачивать файлы