Кто-то там наверху любит меня / Somebody Up There Likes Me (Боб Байингтон / Bob Byington) [2012, США, экзистенциальная комедия, DVB-AVC] DVO (Kino Polska)


Статистика раздачи [Обновить пиров]
Размер:  420 MB   |    Зарегистрирован:  1 год 2 месяца   |    Скачан:  0 раз

Полного источника не было: Никогда

 
   
 
 
 

[Цитировать]

Кто-то там наверху любит меня
Somebody Up There Likes Me- Страна: США
Жанр: экзистенциальная комедия
Год выпуска: 2012
Продолжительность: 01:11:48Перевод: Профессиональный (двухголосый закадровый) по заказу Kino Polska на производственно-технической базе Студии "Акцент"
Cубтитры: нет
Режиссер: Боб Байингтон / Bob Byington
В ролях: Кит Полсон / Keith Poulson (Max), Ник Офферман / Nick Offerman (Sal), Джесс Векслер / Jess Weixler (Lyla), Стефани Хант / Stephanie Hunt (Clarissa), Маршалл Белл / Marshall Bell (Lyla's Father), Кейт Лин Шейл / Kate Lyn Sheil (Ex-Wife), Кевин Корриган / Kevin Corrigan (Memorial Man), Меган Маллали / Megan Mullally (Therapist), Алекс Росс Перри / Alex Ross Perry (Pizza Customer)
Описание: Фильм показывает 35 лет из жизни Макса Янгмана через его отношения с лучшим другом, неуклюжими ухаживаниями и браком на Лайле, через комические заблуждения и случайности, которыми была полна его жизнь.
Доп. информация: Filmbox Arthouse IPTV
Награды: Специальный приз жюри Locarno International Film Festival 2012 + номинация на "Золотой леопард"; номинация на приз зрительских симпатий SXSW Film Festival 2012.

Качество видео: DVB-AVC
Формат видео: MKV
Видео: AVC (H.264), 720x576@1024x576 (16:9), 25 fps, ~673 kbps avg, 0.065 bit/pixel
Аудио: MPEG Audio 2, 2 ch, 48 kHz, ~128.00 kbps avg

MediaInfo

ОбщееУникальный идентификатор : 235322749781226759349724076423494676258 (0xB109835695920293A7BB78772656AF22)Полное имя : F:\My Torrents 3\[apreder]Somebody_Up_There_Likes_Me(2012)DVB.mkvФормат : MatroskaВерсия формата : Version 2Размер файла : 420 МбайтПродолжительность : 1 ч. 11 м.Общий поток : 817 Кбит/секДата кодирования : UTC 2015-06-28 08:34:33Программа кодирования : mkvmerge v8.1.0 ('Psychedelic Postcard') 64bitБиблиотека кодирования : libebml v1.3.1 + libmatroska v1.4.2
ВидеоИдентификатор : 2Формат : AVCФормат/Информация : Advanced Video CodecПрофиль формата : Main@L3Параметр CABAC формата : ДаПараметр ReFrames формата : 3 кадраИдентификатор кодека : V_MPEG4/ISO/AVCПродолжительность : 1 ч. 11 м.Битрейт : 673 Кбит/секШирина : 720 пикселейВысота : 576 пикселейСоотношение сторон : 16:9Соотношение сторон в оригинале : 16:9Режим частоты кадров : ПостоянныйЧастота кадров : 25,000 кадров/секСтандарт вещания : ComponentЦветовое пространство : YUVСубдискретизация насыщенности : 4:2:0Битовая глубина : 8 битТип развёртки : ЧересстрочнаяПорядок развёртки : Верхнее поле первоеБит/(Пиксели*Кадры) : 0.065Размер потока : 346 Мбайт (82%)Default : ДаForced : Нетcolour_range : LimitedОсновные цвета : BT.601 PALХарактеристики трансфера : BT.470 System B, BT.470 System GКоэффициенты матрицы : BT.601
АудиоИдентификатор : 1Формат : MPEG AudioВерсия формата : Version 1Профиль формата : Layer 2Идентификатор кодека : A_MPEG/L2Идентификатор кодека/Подсказка : MP2Продолжительность : 1 ч. 11 м.Вид битрейта : ПостоянныйБитрейт : 128 Кбит/секКаналы : 2 каналаЧастота : 48,0 КГцМетод сжатия : С потерямиЗадержка видео : 2 мс.Размер потока : 65,7 Мбайт (16%)Язык : RussianDefault : ДаForced : Нет

Скриншот c названием фильма

Скриншоты


Резервные скриншоты


-[2'402]
[teatrix.ru].t5749.torrent 
Торрент: Зарегистрирован [ 2015-10-09 00:55 ] · 36AF6435B70F4C90D85633F7E59E012946426EBB

Скачать .torrent

Скачать

17 KB

Статус: проверено
Скачан: 0 раз
Размер: 420 MB
terms.php



Быстрый ответ

Имя:

      
Для отправки сообщений необходимо включить JavaScript
Показать сообщения:    

Текущее время: 11-Дек 14:58

Часовой пояс: UTC + 3


Вы можете начинать темы
Вы можете отвечать на сообщения
Вы не можете редактировать свои сообщения
Вы не можете удалять свои сообщения
Вы не можете голосовать в опросах
Вы не можете прикреплять файлы к сообщениям
Вы можете скачивать файлы