Это зима / Zemestan / It's Winter (Рафи Питтс / Rafi Pitts) [2006, Иран, драма, DVDRip] Sub Rus + Original


Статистика раздачи [Обновить пиров]
Размер:  1.37 GB   |    Зарегистрирован:  1 год 1 месяц   |    Скачан:  0 раз

Полного источника не было: 25 дней

 
   
 
 
 

[Цитировать]

Это зима / Zemestan / It's Winter
Страна: Иран
Жанр: драма
Год выпуска: 2006
Продолжительность: 01:18:21
Перевод: Субтитры - nickk9
Cубтитры: русские
Оригинальная аудиодорожка: персидский

Режиссер: Рафи Питтс / Rafi Pitts
В ролях: Али Никсолат, Митра Хаджар, Хашем Абди, Саид Оркани
Описание: Человека увольняют с работы. Не имея средств к существованию, он решается отправиться на поиски работы заграницу, оставив жену и дочь. Проходят месяцы, от него нету никаких вестей, а его семья находится в бедственном положении. Мархаб, механик, прибывает в город в поисках работы. Молодой человек сразу влюбляется в красавицу-жену.
Качество видео: DVDRip
Формат видео: AVI
Видео: 688x368 (1.87:1), 25 fps, XviD build 73 ~2263 kbps avg, 0.36 bit/pixel
Аудио: 48 kHz, AC3 Dolby Digital, 2/0 (L,R) ch, ~224 kbps

Фрагмент субтитров

189
00:34:42,400 --> 00:34:46,029
Таким уж тебя воспитали - не можешь
ты наслаждаться жизнью!
190
00:34:46,120 --> 00:34:47,951
Ты хоть знаешь что значит
хорошо проводить время?
191
00:34:48,040 --> 00:34:52,670
Разве это здесь сидеть и смотреть,
что там у соседей творится?
192
00:34:53,760 --> 00:34:55,113
Ничего ты не понимаешь.
193
00:34:56,680 --> 00:34:59,114
- Оставь его
- Кого?
194
00:34:59,200 --> 00:35:02,272
- Твоего отца, пусть сам живет
- Отвали! Совсем рехнулся!
195
00:35:03,480 --> 00:35:06,074
Знаешь, как только родители стареют,
196
00:35:07,160 --> 00:35:10,152
надо сразу их из головы выбрасывать.
197
00:35:10,240 --> 00:35:12,276
Не стоит оно того.
198
00:35:13,360 --> 00:35:15,430
Дам ему умереть спокойно.
199
00:35:15,520 --> 00:35:18,159
Ах ты засранец, все чушь несешь!
200
00:35:18,240 --> 00:35:21,277
В тебе столько дерьма!
201
00:35:24,680 --> 00:35:27,353
Ладно, давай пойдем, повеселимся.
202
00:35:27,440 --> 00:35:28,759
Это куда?

MediaInfo

Общее
Полное имя : H:\It's.Winter.2006.dvdrip_[1.37]_[teko]\It's.Winter.2006.dvdrip_[1.37].avi
Формат : AVI
Формат/Информация : Audio Video Interleave
Размер файла : 1,37 Гбайт
Продолжительность : 1 ч. 18 м.
Общий поток : 2498 Кбит/сек
Программа кодирования : VirtualDubMod 1.5.10.3 | www.virtualdub-fr.org || (build 2550/release)
Библиотека кодирования : VirtualDubMod build 2550/release
Видео
Идентификатор : 0
Формат : MPEG-4 Visual
Профиль формата : Advanced Simple@L5
Параметр BVOP формата : 1
Параметр QPel формата : Нет
Параметр GMC формата : Без точки перехода
Параметр матрицы формата : Выборочная
Идентификатор кодека : XVID
Идентификатор кодека/Подсказка : XviD
Продолжительность : 1 ч. 18 м.
Битрейт : 2264 Кбит/сек
Ширина : 688 пикселей
Высота : 368 пикселей
Соотношение сторон : 1,85:1
Частота кадров : 25,000 кадров/сек
Цветовое пространство : YUV
Субдискретизация насыщенности : 4:2:0
Битовая глубина : 8 бит
Тип развёртки : Прогрессивная
Метод сжатия : С потерями
Бит/(Пиксели*Кадры) : 0.358
Размер потока : 1,24 Гбайт (91%)
Библиотека кодирования : XviD 73
Аудио
Идентификатор : 1
Формат : AC-3
Формат/Информация : Audio Coding 3
Расширение режима : CM (complete main)
Параметр Endianness формата : Big
Идентификатор кодека : 2000
Продолжительность : 1 ч. 18 м.
Вид битрейта : Постоянный
Битрейт : 224 Кбит/сек
Каналы : 2 канала
Расположение каналов : Front: L R
Частота : 48,0 КГц
Битовая глубина : 16 бит
Метод сжатия : С потерями
Размер потока : 126 Мбайт (9%)
Выравнивание : Разделение по промежуткам
Продолжительность промежутка : 40 мс. (1,00 видеокадр)
Время предзагрузки промежутка : 500 мс.
[teatrix.ru].t5750.torrent 
Торрент: Зарегистрирован [ 2015-10-09 00:55 ] · 5D093D7800F7FF45BA2A3CA80D12B72C13CB4A1E

Скачать .torrent

Скачать

14 KB

Статус: проверено
Скачан: 0 раз
Размер: 1.37 GB
terms.php



Быстрый ответ

Имя:

      
Для отправки сообщений необходимо включить JavaScript
Показать сообщения:    

Текущее время: 08-Дек 19:02

Часовой пояс: UTC + 3


Вы можете начинать темы
Вы можете отвечать на сообщения
Вы не можете редактировать свои сообщения
Вы не можете удалять свои сообщения
Вы не можете голосовать в опросах
Вы не можете прикреплять файлы к сообщениям
Вы можете скачивать файлы