Найти Форрестера / Finding Forrester (Гас Ван Сент / Gus Van Sant) [2000, США, драма, WEB-DLRip] MVO


Статистика раздачи [Обновить пиров]
Размер:  1.47 GB   |    Зарегистрирован:  1 год 1 месяц   |    Скачан:  0 раз

Полного источника не было: Никогда

 
   
 
 
 

[Цитировать]

Найти Форрестера / Finding Forrester«Встреча, которая меняет всё...»- Страна: США
Жанр: Драма
Год выпуска: 2000
Продолжительность: 02:16:11-Перевод: Профессиональный (многоголосый закадровый)
Cубтитры: нет-Режиссер: Гас Ван Сент / Gus Van Sant-В ролях: Шон Коннери, Роб Браун, Ф. Мюррэй Абрахам, Анна Пакуин, Баста Раймс, Эйприл Грэйс, Майкл Питт, Майкл Нури, Ричард Истон, Гленн Фицджералд, Мэтт Дэймон, Лиль Зейн-Описание: Уильям Форрестер - всемирно известный писатель. Давно - лет сорок назад - он написал всего лишь один роман, но именно благодаря нему он прославился и получил Пулитцеровскую премию. С тех пор никто не знает где живет Форрестер, чем занимается, и жив ли...
Джамал Уоллес - нью-йоркский подросток, которого все считают талантливым баскетболистом, случайно знакомится с пожилым отшельником, жившим в соседнем
доме. Джамал находит в его лице наставника, который помогает подростку раскрыть его литературное дарование. И, в свою очередь, этот пожилой мужчина,
оказавшийся легендарным Форрестером, обретает вкус к жизни, благодаря своему новому другу...
-Sample | IMDB | КиноПоиск-Тип релиза: WEB-DLRip [исх. WEB-DL 720p]
Формат видео: AVI-Видео: 720x304 (2.37:1), 23.976 fps, XviD build 50, 1085 kbps avg, 0.21 bit/pixel
Аудио: 48 kHz, AC3 Dolby Digital, 3/2 (L,C,R,l,r) + LFE ch, 448.00 kbps avg [Russian_MVO]-

MediaInfo

General
Complete name : D:\Мои релизы\Finding Forrester_WEB-DLRip_RG_All_Films.avi
Format : AVI
Format/Info : Audio Video Interleave
File size : 1.47 GiB
Duration : 2h 16mn
Overall bit rate : 1 543 Kbps
Writing application : VirtualDubMod 1.5.10.3 | www.virtualdub-fr.org || (build 2550/release)
Writing library : VirtualDubMod build 2550/release
Video
ID : 0
Format : MPEG-4 Visual
Format profile : Advanced Simple@L5
Format settings, BVOP : Yes
Format settings, QPel : No
Format settings, GMC : No warppoints
Format settings, Matrix : Custom
Codec ID : XVID
Codec ID/Hint : XviD
Duration : 2h 16mn
Bit rate : 1 086 Kbps
Width : 720 pixels
Height : 304 pixels
Display aspect ratio : 2.35:1
Frame rate : 23.976 fps
Color space : YUV
Chroma subsampling : 4:2:0
Bit depth : 8 bits
Scan type : Progressive
Compression mode : Lossy
Bits/(Pixel*Frame) : 0.207
Stream size : 1.03 GiB (70%)
Writing library : XviD 1.2.1 (UTC 2008-12-04)
Audio
ID : 1
Format : AC-3
Format/Info : Audio Coding 3
Mode extension : CM (complete main)
Codec ID : 2000
Duration : 2h 16mn
Bit rate mode : Constant
Bit rate : 448 Kbps
Channel(s) : 6 channels
Channel positions : Front: L C R, Side: L R, LFE
Sampling rate : 48.0 KHz
Bit depth : 16 bits
Compression mode : Lossy
Stream size : 436 MiB (29%)
Alignment : Split accross interleaves
Interleave, duration : 42 ms (1.00 video frame)
Interleave, preload duration : 500 ms

Скриншоты

[teatrix.ru].t5751.torrent 
Торрент: Зарегистрирован [ 2015-10-09 00:55 ] · ED6B2E31CF219165988C6F2A59BB5B2A9E457CA6

Скачать .torrent

Скачать

15 KB

Статус: проверено
Скачан: 0 раз
Размер: 1.47 GB
terms.php



Быстрый ответ

Имя:

      
Для отправки сообщений необходимо включить JavaScript
Показать сообщения:    

Текущее время: 04-Дек 11:14

Часовой пояс: UTC + 3


Вы можете начинать темы
Вы можете отвечать на сообщения
Вы не можете редактировать свои сообщения
Вы не можете удалять свои сообщения
Вы не можете голосовать в опросах
Вы не можете прикреплять файлы к сообщениям
Вы можете скачивать файлы