Саймир / Saimir (Франческо Мунци / Francesco Munzi) [2004, Италия, драма, DVB-AVC] DVO (Kino Polska)


Статистика раздачи [Обновить пиров]
Размер:  670 MB   |    Зарегистрирован:  1 год 2 месяца   |    Скачан:  1 раз

Полного источника не было: 3 месяца 6 дней

 
   
 
 
 

[Цитировать]

Саймир
Saimir- Страна: Италия
Жанр: драма
Год выпуска: 2004
Продолжительность: 01:27:20Перевод: Профессиональный (двухголосый закадровый) по заказу Kino Polska на производственно-технической базе Студии "Акцент"
Cубтитры: нет
Режиссер: Франческо Мунци / Francesco Munzi
В ролях: Мишель Маноку / Mishel Manoku (Saimir), Джевдет Ферри / Xhevdet Ferri (Edmond), Анна Ферруццо / Anna Ferruzzo (Simona), Лавиния Гульельман / Lavinia Guglielman (Michela)
Описание: Эдмонд и Саймир - отец и его 15- летний сын приехали в Италию из Албании. Они очень близки, несмотря на извечное противостояние отцов и детей. В центре внимания - взаимоотношения Саймира и его отца, которые проживают в чужой стране в статусе эмигрантов. Как и все подростки, Саймир испытывает сомнения и трудности. Отец же делает все, от него зависящее, чтобы жизнь сына стала лучше. Глава семьи изо всех сил пытается обеспечить достойное будущее для себя и своего сына, однако оказывается втянутым в сеть торговли малолетними проститутками...
Доп. информация: Filmbox Arthouse IPTV
Награды: приз Луиджи Ди Лаурентиса – специальное упоминание Venice Film Festival 2004; номинация на "Золотой глобус" (Италия) 2004 за лучший режиссерский дебют; приз "Серебряная лента" лучшему режиссеру-дебютанту Italian National Syndicate of Film Journalists 2004 + 4 номинации; номинация на "Феликс" за европейское открытие года European Film Awards 2005; 2 номинации David di Donatello Awards 2006 (приз кинокритиков, лучший режиссер-дебютант); др. награды. Участник секции "14+" Berlin Film Festival 2005.

Качество видео: DVB-AVC
Формат видео: MKV
Видео: AVC (H.264), 720x576@1024x576 (16:9), 25 fps, ~923 kbps avg, 0.089 bit/pixel
Аудио: MPEG Audio 2, 2 ch, 48 kHz, ~128.00 kbps avg

MediaInfo

ОбщееУникальный идентификатор : 182207293961928159653684997912460859999 (0x8913D92DA49150E0933ED1BBE3911A5F)Полное имя : F:\My Torrents 3\[apreder]Saimir(2004)DVB.mkvФормат : MatroskaВерсия формата : Version 2Размер файла : 670 МбайтПродолжительность : 1 ч. 27 м.Общий поток : 1073 Кбит/секДата кодирования : UTC 2015-06-27 11:00:32Программа кодирования : mkvmerge v8.0.0 ('Til The Day That I Die') 64bitБиблиотека кодирования : libebml v1.3.1 + libmatroska v1.4.2
ВидеоИдентификатор : 2Формат : AVCФормат/Информация : Advanced Video CodecПрофиль формата : Main@L3Параметр CABAC формата : ДаПараметр ReFrames формата : 3 кадраИдентификатор кодека : V_MPEG4/ISO/AVCПродолжительность : 1 ч. 27 м.Битрейт : 923 Кбит/секШирина : 720 пикселейВысота : 576 пикселейСоотношение сторон : 16:9Соотношение сторон в оригинале : 16:9Режим частоты кадров : ПостоянныйЧастота кадров : 25,000 кадров/секСтандарт вещания : ComponentЦветовое пространство : YUVСубдискретизация насыщенности : 4:2:0Битовая глубина : 8 битТип развёртки : ЧересстрочнаяПорядок развёртки : Верхнее поле первоеБит/(Пиксели*Кадры) : 0.089Размер потока : 577 Мбайт (86%)Default : ДаForced : Нетcolour_range : LimitedОсновные цвета : BT.601 PALХарактеристики трансфера : BT.470 System B, BT.470 System GКоэффициенты матрицы : BT.601
АудиоИдентификатор : 1Формат : MPEG AudioВерсия формата : Version 1Профиль формата : Layer 2Идентификатор кодека : A_MPEG/L2Идентификатор кодека/Подсказка : MP2Продолжительность : 1 ч. 27 м.Вид битрейта : ПостоянныйБитрейт : 128 Кбит/секКаналы : 2 каналаЧастота : 48,0 КГцМетод сжатия : С потерямиЗадержка видео : -3 мс.Размер потока : 80,0 Мбайт (12%)Язык : RussianDefault : ДаForced : Нет

Скриншот c названием фильма

Скриншоты


Резервные скриншоты


-[2'393]
[teatrix.ru].t5754.torrent 
Торрент: Зарегистрирован [ 2015-10-09 00:55 ] · 87F7C8E3CED1FB7B02DD08282F76734BAEAE1A7C

Скачать .torrent

Скачать

14 KB

Статус: проверено
Скачан: 1 раз
Размер: 670 MB
terms.php



Быстрый ответ

Имя:

      
Для отправки сообщений необходимо включить JavaScript
Показать сообщения:    

Текущее время: 09-Дек 08:46

Часовой пояс: UTC + 3


Вы можете начинать темы
Вы можете отвечать на сообщения
Вы не можете редактировать свои сообщения
Вы не можете удалять свои сообщения
Вы не можете голосовать в опросах
Вы не можете прикреплять файлы к сообщениям
Вы можете скачивать файлы