Дети / Les enfants / The Children (Маргерит Дюрас / Marguerite Duras) [1985, Франция, комедия, притча, экранизация, DVB-AVC] DVO (Kino Polska)


Статистика раздачи [Обновить пиров]
Размер:  452 MB   |    Зарегистрирован:  1 год 1 месяц   |    Скачан:  0 раз

Полного источника не было: Никогда

 
   
 
 
 

[Цитировать]

Дети
Les enfants- Страна: Франция
Жанр: комедия, притча, экранизация
Год выпуска: 1985
Продолжительность: 01:23:15Перевод: Профессиональный (двухголосый закадровый) перевод - Алексей Воинов, по заказу Kino Polska на производственно-технической базе Студии "Акцент"
Cубтитры: нет
Режиссер: Маргерит Дюрас / Marguerite Duras
В ролях: Аксель Богуславский / Axel Bogousslavsky (Ernesto), Даниэль Желен / Daniel Gélin (Enrico), Татьяна Мухина / Tatiana Moukhine (Natasha), Мартина Шевалье / Martine Chevallier (Nicole), Андре Дюссолье / André Dussollier (Le directeur d'école), Пьер Ардити / Pierre Arditi (Le journaliste), Маргерит Дюрас / Marguerite Duras (Narration, voice)
Описание: Адаптация сказки Маргерит Дюрас / Marguerite Duras "Ах, Эрнесто! / Ah! Ernesto!" (1971), позднее переписанной ею же в роман "Летний дождь / La Pluie d'été" (1990). Оператор Брюно Нюиттен / Bruno Nuytten.
«Главный герой фильма – Эрнесто, он же Владимир – странный, не похожий на остальных ребенок, отказавшийся вдруг ходить в школу. Названный разными именами, а порой и вовсе безымянный, этот гениальный ребенок – один из главных героев Маргерит Дюрас позднего периода. Он присутствовал в текстах писательницы и ранее, прежде всего в образе любимого и рано умершего брата Дюрас, однако это были полутона, пунктиры. Герою с именем Эрнесто посвящена короткая сказка «Ах, Эрнесто», вышедшая в 1971 году, по которой режиссерская пара Штрауб – Уийе сняла позже короткий метр. Образ странного ребенка обрисовывается четче с началом 80-х годов, прежде всего в сборнике статей «Лето 80-го», которые Дюрас писала в Трувиле для газеты «Либерасьон», когда к ней впервые приехал ее спутник и компаньон Ян Андреа. Сюжет о любви необычного ребенка и воспитательницы потом был использован в тексте «Девушка и ребенок» (1981) и лег в основу романа «Ян Андреа Штайнер» (1992). Образы любимого брата и гениального ребенка сошлись воедино в романе Дюрас «Летний дождь» (1990), который и стал непосредственной основой последнего фильма писательницы «Дети», после него Дюрас уже не хотела иметь ничего общего с кинематографом. «Летний дождь» был переписан, укорочен, актеры на площадке иногда импровизировали. История начинается с того, что однажды семилетний Эрнесто заявляет, что больше никогда не пойдет в школу, а все потому, что он уже постиг устройство мира. Вслед за ним отказывается ходить в школу и его сестра…» (Алексей Воинов)
Доп. информация: Filmbox Arthouse IPTV
Награды: 2 награды Berlin International Film Festival 1985 (премия Международной конфедерации артхаусных кинотеатров CICAE, "Серебряный берлинский медведь") + номинация на "Золотой медведь".

Качество видео: DVB-AVC
Формат видео: MKV
Видео: AVC (H.264), 720x576@1024x576 (16:9), 25 fps, ~616 kbps avg, 0.061 bit/pixel
Аудио: MPEG Audio 2, 2 ch, 48 kHz, ~128.00 kbps avg

MediaInfo

ОбщееУникальный идентификатор : 240655090931912977426490467292065843282 (0xB50C7C0E0EB85A35BC23D28042904852)Полное имя : F:\My Torrents 3\[apreder]Les_enfants(1985)DVB.mkvФормат : MatroskaВерсия формата : Version 2Размер файла : 452 МбайтПродолжительность : 1 ч. 23 м.Общий поток : 759 Кбит/секДата кодирования : UTC 2015-06-27 08:09:46Программа кодирования : mkvmerge v8.0.0 ('Til The Day That I Die') 64bitБиблиотека кодирования : libebml v1.3.1 + libmatroska v1.4.2
ВидеоИдентификатор : 2Формат : AVCФормат/Информация : Advanced Video CodecПрофиль формата : Main@L3Параметр CABAC формата : ДаПараметр ReFrames формата : 3 кадраИдентификатор кодека : V_MPEG4/ISO/AVCПродолжительность : 1 ч. 23 м.Битрейт : 616 Кбит/секШирина : 720 пикселейВысота : 576 пикселейСоотношение сторон : 16:9Соотношение сторон в оригинале : 16:9Режим частоты кадров : ПостоянныйЧастота кадров : 24,194 кадра/секЧастота кадров в оригинале : 25,000 кадров/секСтандарт вещания : ComponentЦветовое пространство : YUVСубдискретизация насыщенности : 4:2:0Битовая глубина : 8 битТип развёртки : ЧересстрочнаяПорядок развёртки : Верхнее поле первоеБит/(Пиксели*Кадры) : 0.061Размер потока : 367 Мбайт (81%)Default : ДаForced : Нетcolour_range : LimitedОсновные цвета : BT.601 PALХарактеристики трансфера : BT.470 System B, BT.470 System GКоэффициенты матрицы : BT.601
АудиоИдентификатор : 1Формат : MPEG AudioВерсия формата : Version 1Профиль формата : Layer 2Идентификатор кодека : A_MPEG/L2Идентификатор кодека/Подсказка : MP2Продолжительность : 1 ч. 23 м.Вид битрейта : ПостоянныйБитрейт : 128 Кбит/секКаналы : 2 каналаЧастота : 48,0 КГцМетод сжатия : С потерямиЗадержка видео : -13 мс.Размер потока : 76,2 Мбайт (17%)Язык : RussianDefault : ДаForced : Нет

Скриншот c названием фильма

Скриншоты


Резервные скриншоты


-[2'390]
[teatrix.ru].t5755.torrent 
Торрент: Зарегистрирован [ 2015-10-09 00:55 ] · 68CB2F9E9C8C27B79AD6A401A368F51ADA43B341

Скачать .torrent

Скачать

18 KB

Статус: проверено
Скачан: 0 раз
Размер: 452 MB
terms.php



Быстрый ответ

Имя:

      
Для отправки сообщений необходимо включить JavaScript
Показать сообщения:    

Текущее время: 06-Дек 19:03

Часовой пояс: UTC + 3


Вы можете начинать темы
Вы можете отвечать на сообщения
Вы не можете редактировать свои сообщения
Вы не можете удалять свои сообщения
Вы не можете голосовать в опросах
Вы не можете прикреплять файлы к сообщениям
Вы можете скачивать файлы