Пассажиры / Les passagers (Жан-Клод Гиге / Jean-Claude Guiguet) [1999, Франция, драма, DVDRip] + Sub Rus


Статистика раздачи [Обновить пиров]
Размер:  1.46 GB   |    Зарегистрирован:  1 год 2 месяца   |    Скачан:  0 раз

Полного источника не было: Никогда

 
   
 
 
 

[Цитировать]

Пассажиры / Les passagers
Страна: Франция
Жанр: драма
Год выпуска: 1999
Продолжительность: 01:28:15
Перевод: Субтитры - Lisok, alex-kin
Cубтитры: русские
оригинальная дорожка - французский

Режиссер: Жан-Клод Гиге / Jean-Claude Guiguet
В ролях: Фабьенн Бабе, Филипп Гарциано, Брюно Пютзулю, Стефан Ридо, Гвенэль Симон, Вероник Сильвер, Жан-Кристоф Буве, Мари Руссо, Лоран Адюсо, Томас Бадек, Серж Бозон
Описание: Четвёртый и последний фильм Жана-Клода Гиге отличается многофигурностью: здесь у каждого персонажа своя история, рассказывающая скорее не о нём самом, а о мире, в котором живёт каждый человек. Это весёлые и грустные истории, задумчивые или немудрённые – истории чудаков и обычных людей, которые переживают, думают, живут.
Для того чтобы фильм не распался на ряд фрагментов, Гиге вводит образ, который словно бы сшивает все истории – это трамвай, в котором едут люди и их монологи, диалоги, истории, чувства. Персонажи входят и выходят, молчат или говорят – так рождается фильм, и Гиге удаётся вложить в повседневные разговоры о СПИДе, безработице, кино, сексуальности, смерти, любви, жизни какой-то чёткий смысл, сделать их важнее, чем просто трамвайная болтовня. Оказывается, что и в простых разговорах и тривиальных историях, если рассказать их с верной интонацией, заложены истины – важные для каждого человека.

Качество видео: DVDRip
Формат видео: AVI
Видео: 704x432 (1.63:1), 23.976 fps, XviD build 73 ~2126 kbps avg, 0.29 bit/pixel
Аудио: 48 kHz, AC3 Dolby Digital, 2/0 (L,R) ch, ~224 kbps

Фрагмент субтитров

806
01:11:55,358 --> 01:11:58,350
Ты обнимаешь уже не идеальную
хозяйку дома, а хозяйку твоего тела!
807
01:11:58,361 --> 01:11:59,521
Словно ураган
проносится над тобой!
808
01:11:59,562 --> 01:12:02,554
Это хаос, тепловой шок
двух кожных покровов!
809
01:12:03,299 --> 01:12:06,462
Я отдаю всё-всё-всё
своему мужчине! Да!
810
01:12:06,569 --> 01:12:11,404
Потому что у меня есть мужчина.
Здоровяк-мужчина! Мужчина...
811
01:12:12,341 --> 01:12:14,309
Как мне описать в двух словах
этот идеал?
812
01:12:14,443 --> 01:12:17,503
Мужчина влюблённый,
верный! Да!
813
01:12:18,314 --> 01:12:20,509
Первый раз с ним -
это было как...
814
01:12:21,584 --> 01:12:23,449
...мой первый раз.
815
01:12:23,586 --> 01:12:26,316
До него никто
не прикасался ко мне и пальцем.
816
01:12:26,422 --> 01:12:28,390
Когда он обнял меня,
наивную и неумелую,
817
01:12:28,424 --> 01:12:29,550
я инстинктивно почувствовала -
818
01:12:29,592 --> 01:12:34,359
женским чутьём, которое не обманет, -
что во мне что-то происходит.

MediaInfo

Общее
Полное имя : H:\Les.passagers.1999.dvdrip_[1.46]_[teko].avi
Формат : AVI
Формат/Информация : Audio Video Interleave
Размер файла : 1,45 Гбайт
Продолжительность : 1 ч. 28 м.
Общий поток : 2360 Кбит/сек
Программа кодирования : VirtualDubMod 1.5.10.3 | www.virtualdub-fr.org || (build 2550/release)
Библиотека кодирования : VirtualDubMod build 2550/release
Видео
Идентификатор : 0
Формат : MPEG-4 Visual
Профиль формата : Advanced Simple@L5
Параметр BVOP формата : 1
Параметр QPel формата : Нет
Параметр GMC формата : Без точки перехода
Параметр матрицы формата : Выборочная
Идентификатор кодека : XVID
Идентификатор кодека/Подсказка : XviD
Продолжительность : 1 ч. 28 м.
Битрейт : 2127 Кбит/сек
Ширина : 704 пикселя
Высота : 432 пикселя
Соотношение сторон : 16:10
Частота кадров : 23,976 кадра/сек
Цветовое пространство : YUV
Субдискретизация насыщенности : 4:2:0
Битовая глубина : 8 бит
Тип развёртки : Прогрессивная
Метод сжатия : С потерями
Бит/(Пиксели*Кадры) : 0.292
Размер потока : 1,31 Гбайт (90%)
Библиотека кодирования : XviD 73
Аудио
Идентификатор : 1
Формат : AC-3
Формат/Информация : Audio Coding 3
Расширение режима : CM (complete main)
Параметр Endianness формата : Big
Идентификатор кодека : 2000
Продолжительность : 1 ч. 28 м.
Вид битрейта : Постоянный
Битрейт : 224 Кбит/сек
Каналы : 2 канала
Расположение каналов : Front: L R
Частота : 48,0 КГц
Битовая глубина : 16 бит
Метод сжатия : С потерями
Размер потока : 141 Мбайт (9%)
Выравнивание : Разделение по промежуткам
Продолжительность промежутка : 42 мс. (1,00 видеокадр)
Время предзагрузки промежутка : 500 мс.
[teatrix.ru].t5756.torrent 
Торрент: Зарегистрирован [ 2015-10-09 00:55 ] · 115B0967290601B58D72CAFF87BEC08BA16A3CA8

Скачать .torrent

Скачать

15 KB

Статус: проверено
Скачан: 0 раз
Размер: 1.46 GB
terms.php



Быстрый ответ

Имя:

      
Для отправки сообщений необходимо включить JavaScript
Показать сообщения:    

Текущее время: 10-Дек 19:42

Часовой пояс: UTC + 3


Вы можете начинать темы
Вы можете отвечать на сообщения
Вы не можете редактировать свои сообщения
Вы не можете удалять свои сообщения
Вы не можете голосовать в опросах
Вы не можете прикреплять файлы к сообщениям
Вы можете скачивать файлы