Хорошие манеры / Les belles manieres / Fine Manners (Жан-Клод Гиге / Jean-Claude Guiguet) [1978, Франция, драма, DVDRip] + Sub Rus + Original Fre


Статистика раздачи [Обновить пиров]
Размер:  1.46 GB   |    Зарегистрирован:  1 год 2 месяца   |    Скачан:  0 раз

Полного источника не было: Никогда

 
   
 
 
 

[Цитировать]

Хорошие манеры / Les belles manieres / Fine Manners
Страна: Франция
Жанр: драма
Год выпуска: 1978
Продолжительность: 01:32:13
Перевод: Субтитры - Lisok, alex-kin
Cубтитры: русские
Оригинальная аудиодорожка: французский

Режиссер: Жан-Клод Гиге / Jean-Claude Guiguet
В ролях: Элен Сюржер, Эммануэль Лемойн, Мартина Симоне, Николя Зильбер, Херв Дюамель, Виктор Гарривье, Сирил Спига, Даниэль Деруссе, Филипп де Пуа, Дениз Фарши
Описание: Камиль Майяр приезжает из провинции в Париж, чтобы найти работу. Он нанимается к Элен Куртрэ с тем условием, что будет, по её же словам, кем-то вроде юного кузена, а не слуги, чернорабочего или компаньона. У Элен есть сын Пьер, который уже два года не выходит из комнаты. И Камиль исправно служит, живёт в маленькой комнатушке, ведёт с Элен разговоры о своём прошлом, находит в Париже свою сестру Доминик и вообще познаёт тот мир, в котором ему не окажется места.
Качество видео: DVDRip
Формат видео: AVI
Видео: 672x400 (1.68:1), 23.976 fps, XviD build 73 ~2025 kbps avg, 0.31 bit/pixel
Аудио: 48 kHz, AC3 Dolby Digital, 2/0 (L,R) ch, ~224 kbps

Фрагмент субтитров

503
00:51:54,291 --> 00:51:55,383
Помогите мне.
504
00:52:13,343 --> 00:52:15,573
Сегодня наверх вы
подниматься не будете.
505
00:52:16,380 --> 00:52:19,543
В бельевой есть кровать.
Она подойдёт.
506
00:52:24,388 --> 00:52:27,357
Вот. Полежите в ней
двадцать минут.
507
00:52:51,582 --> 00:52:53,447
Теперь намного лучше.
508
00:52:59,456 --> 00:53:05,326
Вот, выпейте этот отвар.
Он поможет вам уснуть.
509
00:53:11,335 --> 00:53:13,360
Вам здесь нравится?
510
00:53:14,471 --> 00:53:16,530
Тут всё белое на белом.
511
00:53:17,407 --> 00:53:18,499
Погодите, я сейчас.
512
00:53:35,459 --> 00:53:40,294
Это мои любимые цветы,
из-за меланхолии.
513
00:53:40,497 --> 00:53:43,489
"Видеть в дожде улыбку ветра,
514
00:53:43,567 --> 00:53:48,504
видеть в прояснении погоды
лик весны,
515
00:53:48,572 --> 00:53:52,406
в ноготках видеть
только полевые цветы,
516
00:53:52,409 --> 00:53:54,377
а не меланхолию".
517
00:54:05,489 --> 00:54:07,354
Ничего серьёзного.
518
00:54:08,525 --> 00:54:10,493
Завтра всё пройдёт.
519
00:54:11,595 --> 00:54:14,428
Кроме вот этого шрама.

MediaInfo

Общее
Полное имя : H:\Les.belles.manieres.1978.dvdrip_[1.46].avi
Формат : AVI
Формат/Информация : Audio Video Interleave
Размер файла : 1,46 Гбайт
Продолжительность : 1 ч. 32 м.
Общий поток : 2259 Кбит/сек
Программа кодирования : VirtualDubMod 1.5.10.3 | www.virtualdub-fr.org || (build 2550/release)
Библиотека кодирования : VirtualDubMod build 2550/release
Видео
Идентификатор : 0
Формат : MPEG-4 Visual
Профиль формата : Advanced Simple@L5
Параметр BVOP формата : 1
Параметр QPel формата : Нет
Параметр GMC формата : Без точки перехода
Параметр матрицы формата : Выборочная
Идентификатор кодека : XVID
Идентификатор кодека/Подсказка : XviD
Продолжительность : 1 ч. 32 м.
Битрейт : 2026 Кбит/сек
Ширина : 672 пикселя
Высота : 400 пикселей
Соотношение сторон : 1,680
Частота кадров : 23,976 кадра/сек
Цветовое пространство : YUV
Субдискретизация насыщенности : 4:2:0
Битовая глубина : 8 бит
Тип развёртки : Прогрессивная
Метод сжатия : С потерями
Бит/(Пиксели*Кадры) : 0.314
Размер потока : 1,30 Гбайт (90%)
Библиотека кодирования : XviD 73
Аудио
Идентификатор : 1
Формат : AC-3
Формат/Информация : Audio Coding 3
Расширение режима : CM (complete main)
Параметр Endianness формата : Big
Идентификатор кодека : 2000
Продолжительность : 1 ч. 32 м.
Вид битрейта : Постоянный
Битрейт : 224 Кбит/сек
Каналы : 2 канала
Расположение каналов : Front: L R
Частота : 48,0 КГц
Битовая глубина : 16 бит
Метод сжатия : С потерями
Размер потока : 148 Мбайт (10%)
Выравнивание : Разделение по промежуткам
Продолжительность промежутка : 42 мс. (1,00 видеокадр)
Время предзагрузки промежутка : 500 мс.
[teatrix.ru].t5757.torrent 
Торрент: Зарегистрирован [ 2015-10-09 00:55 ] · D5024B3DB7F830A50DCD86C2DF724C362A9FAA2F

Скачать .torrent

Скачать

15 KB

Статус: проверено
Скачан: 0 раз
Размер: 1.46 GB
terms.php



Быстрый ответ

Имя:

      
Для отправки сообщений необходимо включить JavaScript
Показать сообщения:    

Текущее время: 10-Дек 02:15

Часовой пояс: UTC + 3


Вы можете начинать темы
Вы можете отвечать на сообщения
Вы не можете редактировать свои сообщения
Вы не можете удалять свои сообщения
Вы не можете голосовать в опросах
Вы не можете прикреплять файлы к сообщениям
Вы можете скачивать файлы