Лишь Бог меня видит / Только Бог меня видит / Dieu seul me voit (Брюно Подалидес / Bruno Podalydès) [1998, Франция, комедия, DVDRip] Sub Rus + Original Fre


Статистика раздачи [Обновить пиров]
Размер:  1.46 GB   |    Зарегистрирован:  1 год 1 месяц   |    Скачан:  0 раз

Полного источника не было: Никогда

 
   
 
 
 

[Цитировать]

Лишь Бог меня видит / Только Бог меня видит / Версаль-Шантье / Dieu seul me voit
Страна: Франция
Жанр: комедия
Год выпуска: 1998
Продолжительность: 01:57:21
Перевод: Субтитры - VovaZorro, MinimalBoy
Cубтитры: русские
Оригинальная аудиодорожка: французский

Режиссер: Брюно Подалидес / Bruno Podalydès
В ролях: Дени Подалидес, Изабель Канделье, Жанна Балибар, Филипп Юшан, Жан-Ноэль Бруте, Сесиль Буйо
Описание: Комедия ситуаций — легкая и остроумная — о среднем, обычном французе.
Всю жизнь Альбер сомневался — по поводу и без оного. Возможно поэтому он до сих пор оставался один. Но сейчас судьба дарит ему сразу три возможности изменить свою жизнь. Первая — медсестра Софи, вторая — Корин, детектив из Парижа, и, наконец, третья — Анна, режиссер-документалист...

Качество видео: DVDRip
Формат видео: AVI
Видео: 704x384 (1.83:1), 25 fps, XviD build 73 ~1512 kbps avg, 0.22 bit/pixel
Аудио: 48 kHz, AC3 Dolby Digital, 2/0 (L,R) ch, ~256 kbps

Фрагмент субтитров

1387
01:25:43,920 --> 01:25:48,311
Отто, что молчишь?
Ты что вечером делаешь?
1388
01:25:48,560 --> 01:25:51,438
Смотрю "Репортажи спецкора"
о вреде курения.
1389
01:25:51,600 --> 01:25:52,749
Ясно...
1390
01:25:52,920 --> 01:25:55,070
Ну ладно, надо идти.
1391
01:25:55,280 --> 01:25:56,190
Извини.
1392
01:25:56,360 --> 01:25:58,316
- Пока, ребята.
- Пока.
1393
01:25:59,440 --> 01:26:00,429
Чао.
1394
01:26:02,400 --> 01:26:03,628
- Чао.
- Пока.
1395
01:26:05,880 --> 01:26:08,952
УПРАВЛЕНИЕ ЖЕЛЕЗНЫХ ДОРОГ
1396
01:26:11,320 --> 01:26:14,676
Ресторан выбрать -
это как ребенка завести.
1397
01:26:14,960 --> 01:26:17,520
В первый не идешь,
во второй не идешь,
1398
01:26:17,680 --> 01:26:19,591
а потом и идти некуда.
1399
01:26:20,640 --> 01:26:23,712
Чем дольше думаешь,
тем тяжелее решиться.
1400
01:26:25,920 --> 01:26:27,273
Пошли сюда.

MediaInfo

Общее
Полное имя : H:\Dieu.seul.me.voit.1998.dvdrip_[1.46]_[teko]\Dieu.seul.me.voit.1998.dvdrip_[1.46].avi
Формат : AVI
Формат/Информация : Audio Video Interleave
Размер файла : 1,46 Гбайт
Продолжительность : 1 ч. 57 м.
Общий поток : 1779 Кбит/сек
Программа кодирования : VirtualDubMod 1.5.10.3 | www.virtualdub-fr.org || (build 2550/release)
Библиотека кодирования : VirtualDubMod build 2550/release
Видео
Идентификатор : 0
Формат : MPEG-4 Visual
Профиль формата : Advanced Simple@L5
Параметр BVOP формата : 1
Параметр QPel формата : Нет
Параметр GMC формата : Без точки перехода
Параметр матрицы формата : Выборочная
Идентификатор кодека : XVID
Идентификатор кодека/Подсказка : XviD
Продолжительность : 1 ч. 57 м.
Битрейт : 1513 Кбит/сек
Ширина : 704 пикселя
Высота : 384 пикселя
Соотношение сторон : 1,85:1
Частота кадров : 25,000 кадров/сек
Цветовое пространство : YUV
Субдискретизация насыщенности : 4:2:0
Битовая глубина : 8 бит
Тип развёртки : Прогрессивная
Метод сжатия : С потерями
Бит/(Пиксели*Кадры) : 0.224
Размер потока : 1,24 Гбайт (85%)
Библиотека кодирования : XviD 73
Аудио
Идентификатор : 1
Формат : AC-3
Формат/Информация : Audio Coding 3
Расширение режима : CM (complete main)
Параметр Endianness формата : Big
Идентификатор кодека : 2000
Продолжительность : 1 ч. 57 м.
Вид битрейта : Постоянный
Битрейт : 256 Кбит/сек
Каналы : 2 канала
Расположение каналов : Front: L R
Частота : 48,0 КГц
Битовая глубина : 16 бит
Метод сжатия : С потерями
Размер потока : 215 Мбайт (14%)
Выравнивание : Разделение по промежуткам
Продолжительность промежутка : 40 мс. (1,00 видеокадр)
Время предзагрузки промежутка : 500 мс.
[teatrix.ru].t5758.torrent 
Торрент: Зарегистрирован [ 2015-10-09 00:55 ] · 4005DDB3A56F0EE560BF1B9823CE0362DBFC1EF9

Скачать .torrent

Скачать

15 KB

Статус: проверено
Скачан: 0 раз
Размер: 1.46 GB
terms.php



Быстрый ответ

Имя:

      
Для отправки сообщений необходимо включить JavaScript
Показать сообщения:    

Текущее время: 08-Дек 05:17

Часовой пояс: UTC + 3


Вы можете начинать темы
Вы можете отвечать на сообщения
Вы не можете редактировать свои сообщения
Вы не можете удалять свои сообщения
Вы не можете голосовать в опросах
Вы не можете прикреплять файлы к сообщениям
Вы можете скачивать файлы