Агнец Божий / Agnus Dei (Агим Сопи / Agim Sopi) [2012, Косово, военная драма, DVB-AVC] DVO (Kino Polska)


Статистика раздачи [Обновить пиров]
Размер:  776 MB   |    Зарегистрирован:  1 год 2 месяца   |    Скачан:  1 раз

Полного источника не было: 2 месяца 27 дней

 
   
 
 
 

[Цитировать]

Агнец Божий
Agnus Dei- Страна: Косово
Жанр: военная драма
Год выпуска: 2012
Продолжительность: 01:47:27Перевод: Профессиональный (двухголосый закадровый) по заказу Kino Polska на производственно-технической базе Студии "Акцент"
Cубтитры: нет
Режиссер: Агим Сопи / Agim Sopi
В ролях: Астрит Алихаджарай / Astrit Alihajdaraj (Peter), Дафина Бериша / Dafina Berisha (Maria), Заклина Остир / Zaklina Ostir (Mother Maria), Энвер Петровци / Enver Petrovci (Comander Vojvodo), Чун Лайчи / Çun Lajçi (Vuk)
Описание: Петер живет с матерью и ее мужем в сербской деревне, и не знает, что был плодом запретной любви его матери и албанца, с которыми Сербия ведет войну ненависти. Мать заставляет его идти на войну, в то время как сам он давно хочет бежать на Запад…
Доп. информация: Filmbox Arthouse IPTV
Награды: приз за лучший фильм Film Fest Kosova 2012; Специальное упоминание жюри за лучший художественный фильм International Film Awards Berlin 2013; приз "Золотой лев" за лучший фильм London Film Awards 2013; премия Ван Гога за кинематографические видение Amsterdam Film Festival 2015; приз за лучший иностранный фильм Canada International Film Festival 2015; Золотой приз за лучший фильм International Independent Film Awards 2015; др. награды.

Качество видео: DVB-AVC
Формат видео: MKV
Видео: AVC (H.264), 720x576@1024x576 (16:9), 25 fps, ~862 kbps avg, 0.089 bit/pixel
Аудио: MPEG Audio 2, 2 ch, 48 kHz, ~128.00 kbps avg

MediaInfo

ОбщееУникальный идентификатор : 196341637473579219023154495437532053824 (0x93B6061DEB73C060A23B6DA0B1604140)Полное имя : F:\My Torrents 3\[apreder]Agnus_Dei(2012)DVB.mkvФормат : MatroskaВерсия формата : Version 2Размер файла : 776 МбайтПродолжительность : 1 ч. 47 м.Общий поток : 1010 Кбит/секДата кодирования : UTC 2015-06-26 14:45:07Программа кодирования : mkvmerge v8.0.0 ('Til The Day That I Die') 64bitБиблиотека кодирования : libebml v1.3.1 + libmatroska v1.4.2
ВидеоИдентификатор : 2Формат : AVCФормат/Информация : Advanced Video CodecПрофиль формата : Main@L3Параметр CABAC формата : ДаПараметр ReFrames формата : 3 кадраПараметр GOP формата : M=4, N=32Идентификатор кодека : V_MPEG4/ISO/AVCПродолжительность : 1 ч. 47 м.Битрейт : 862 Кбит/секШирина : 720 пикселейВысота : 576 пикселейСоотношение сторон : 16:9Соотношение сторон в оригинале : 16:9Режим частоты кадров : ПостоянныйЧастота кадров : 23,419 кадра/секЧастота кадров в оригинале : 25,000 кадров/секСтандарт вещания : ComponentЦветовое пространство : YUVСубдискретизация насыщенности : 4:2:0Битовая глубина : 8 битТип развёртки : ЧересстрочнаяПорядок развёртки : Верхнее поле первоеБит/(Пиксели*Кадры) : 0.089Размер потока : 662 Мбайт (85%)Default : ДаForced : Нетcolour_range : LimitedОсновные цвета : BT.601 PALХарактеристики трансфера : BT.470 System B, BT.470 System GКоэффициенты матрицы : BT.601
АудиоИдентификатор : 1Формат : MPEG AudioВерсия формата : Version 1Профиль формата : Layer 2Идентификатор кодека : A_MPEG/L2Идентификатор кодека/Подсказка : MP2Продолжительность : 1 ч. 47 м.Вид битрейта : ПостоянныйБитрейт : 128 Кбит/секКаналы : 2 каналаЧастота : 48,0 КГцМетод сжатия : С потерямиЗадержка видео : -14 мс.Размер потока : 98,4 Мбайт (13%)Язык : RussianDefault : ДаForced : Нет

Скриншот c названием фильма

Скриншоты


Резервные скриншоты


-[2'383]
[teatrix.ru].t5759.torrent 
Торрент: Зарегистрирован [ 2015-10-09 00:55 ] · 2B264B73EC300DABA36D17F3B540E4FE4229154E

Скачать .torrent

Скачать

16 KB

Статус: проверено
Скачан: 1 раз
Размер: 776 MB
terms.php



Быстрый ответ

Имя:

      
Для отправки сообщений необходимо включить JavaScript
Показать сообщения:    

Текущее время: 10-Дек 21:34

Часовой пояс: UTC + 3


Вы можете начинать темы
Вы можете отвечать на сообщения
Вы не можете редактировать свои сообщения
Вы не можете удалять свои сообщения
Вы не можете голосовать в опросах
Вы не можете прикреплять файлы к сообщениям
Вы можете скачивать файлы