Додескаден / Под стук трамвайных колес / Clickety-Clack / Dodesukaden (Акира Куросава / Akira Kurosawa) [1970, Япония, драма, BDRip] VO (Деваль Видео) + Sub Eng


 

[Цитировать]

Додескаден / Под стук трамвайных колес / Clickety-Clack / Dodesukaden
Страна: Япония
Жанр: драма
Год выпуска: 1970
Продолжительность: 02:19:59
Перевод: Студийный (одноголосый закадровый) - Деваль Видео
Cубтитры: английские
Оригинальная аудиодорожка: японский

Режиссер: Акира Куросава / Akira Kurosawa
В ролях: Ёситака Дзуси, Кин Сугаи, Тосиюки Тономура, Синсукэ Минами, Юко Кусуноки, Дзюнзабуро Бан, Киёко Тангэ, Мичио Хино, Кэйдзи Фуруяма, Таппэй Симокава
Описание: Несколько новелл из жизни обитателей свалки по роману Сюгоро Ямамото «Город без времён года». Это рассказ и о больном мальчике, мечтающем стать водителем трамваев, который каждый день заходит в невидимый трамвай, поворачивает сотни невидимых рычажков, поправляет несуществующую фуражку и бежит с криком, имитирующим стук трамвайных колёс: «До-дес-ка-ден». О двух пьяницах, которые в подпитии обменялись собственными жёнами. О человеке, который из-за измены любимой жены отрешается от мира, уходит на дно и даже чуткая забота раскаявшейся супруги не может вернуть его к миру. Хромой клерк устраивает вечеринку для сослуживцев, но веселье оканчивается дракой. Толстяк воспитывает шестерых детей неверной жены. Безумный архитектор рассказывает сыну о своих прекрасных градостроительных замыслах, а по вечерам собирает вместе с ним объедки, которыми однажды мальчик и отравится…
Качество видео: BDRip
Формат видео: AVI
Видео: 656x480 (1.37:1), 23.976 fps, XviD build 73 ~2030 kbps avg, 0.27 bit/pixel
Аудио: 48 kHz, AC3 Dolby Digital, 2/0 (L,R) ch, ~192 kbps - одноголосый
Аудио: 48 kHz, AC3 Dolby Digital, 2/0 (L,R) ch, ~192 kbps - оригинал (отдельным файлом)

Сравнение

http://rutracker.org/forum/viewtopic.php?t=2130970
большая беда всех блюровских изданий Куросавы - порезанный кадр. И тут не обошлось без этого
http://screenshotcomparison.com/comparison/132554

MediaInfo

Общее
Полное имя : H:\Dodesukaden.1970.bdrip_[2.18]_[teko]\Dodesukaden.1970.bdrip_[2.18].avi
Формат : AVI
Формат/Информация : Audio Video Interleave
Профиль формата : OpenDML
Размер файла : 2,18 Гбайт
Продолжительность : 2 ч. 19 м.
Общий поток : 2230 Кбит/сек
Программа кодирования : VirtualDubMod 1.5.10.3 | www.virtualdub-fr.org || (build 2550/release)
Библиотека кодирования : VirtualDubMod build 2550/release
Видео
Идентификатор : 0
Формат : MPEG-4 Visual
Профиль формата : Advanced Simple@L5
Параметр BVOP формата : 1
Параметр QPel формата : Нет
Параметр GMC формата : Без точки перехода
Параметр матрицы формата : Выборочная
Идентификатор кодека : XVID
Идентификатор кодека/Подсказка : XviD
Продолжительность : 2 ч. 19 м.
Битрейт : 2026 Кбит/сек
Ширина : 656 пикселей
Высота : 480 пикселей
Соотношение сторон : 4:3
Частота кадров : 23,976 кадра/сек
Цветовое пространство : YUV
Субдискретизация насыщенности : 4:2:0
Битовая глубина : 8 бит
Тип развёртки : Прогрессивная
Метод сжатия : С потерями
Бит/(Пиксели*Кадры) : 0.268
Размер потока : 1,98 Гбайт (91%)
Библиотека кодирования : XviD 73
Аудио
Идентификатор : 1
Формат : AC-3
Формат/Информация : Audio Coding 3
Расширение режима : CM (complete main)
Параметр Endianness формата : Big
Идентификатор кодека : 2000
Продолжительность : 2 ч. 19 м.
Вид битрейта : Постоянный
Битрейт : 192 Кбит/сек
Каналы : 2 канала
Расположение каналов : Front: L R
Частота : 48,0 КГц
Битовая глубина : 16 бит
Метод сжатия : С потерями
Размер потока : 192 Мбайт (9%)
Выравнивание : Разделение по промежуткам
Продолжительность промежутка : 42 мс. (1,00 видеокадр)
Время предзагрузки промежутка : 500 мс.



Показать сообщения:    

Текущее время: 08-Дек 09:04

Часовой пояс: UTC + 3


Вы не можете начинать темы
Вы не можете отвечать на сообщения
Вы не можете редактировать свои сообщения
Вы не можете удалять свои сообщения
Вы не можете голосовать в опросах
Вы не можете прикреплять файлы к сообщениям
Вы не можете скачивать файлы