Неверная / Trolösa / Trolosa / Faithless (Лив Ульман / Liv Ullmann) [2000, Швеция, Италия, Германия, Финляндия, Норвегия, Драма, DVDRip-AVC] VO (Денис Строев) + Sub (Rus) + Original (Swe)


Статистика раздачи [Обновить пиров]
Размер:  2.18 GB   |    Зарегистрирован:  1 год 1 месяц   |    Скачан:  0 раз

Полного источника не было: Никогда

 
   
 
 
 

[Цитировать]

Неверная / Trolösa / Trolosa / Faithless-- Страна: Швеция, Италия, Германия, Финляндия, Норвегия
Жанр: Драма
Год выпуска: 2000
Продолжительность: 02:27:58
Перевод: Одноголосый закадровый (Денис Строев)
Cубтитры: русские (Svanus, корректировка - Ёжиков)
Оригинальная аудиодорожка: шведский--Режиссер: Лив Ульман / Liv Ullmann
В ролях: Лена Эндре, Эрланд Юзефсон, Кристер Хенрикссон, Томас Ханзон, Мишель Гилемо, Юни Дар, Филип Санден, Тереза Бруннандер, Мария Рихардсон, Стина Экблад, Йохан Рабеус, Ян-Улоф Страндберг, Бьёрн Гранат, Гертруда Стенунг, Аса Линдстрем--Описание: Пожилой режиссер пишет сценарий, главная героиня которого – театральная актриса Марианна. Она замужем за дирижером Маркусом и у них есть девятилетняя дочь. Муж постоянно в разъездах, поэтому женщина часто остается одна.
Однажды, во время очередного турне мужа, друг семьи – режиссер Дэвид – напрашивается в гости и остается на ночь. Неожиданно для самих героев между ними вспыхивает страсть, в пылу которой Марианна теряет голову настолько, что готова рискнуть своим браком...-Сэмпл
Качество видео: DVDRip-AVC
Формат видео: MKV
Видео: x264, 720х576 => 1021х576 (16:9), 1721 Кбит/сек, 25,000 кадров/сек
Аудио: AC-3, 192 Кбит/сек (2 канала), 48,0 КГц - русский
Аудио 2: AC-3, 192 Кбит/сек (2 канала), 48,0 КГц - шведский
Формат субтитров: softsub (SRT)

MediaInfo

Общее
Уникальный идентификатор : 176223027081125232122833935456289338252 (0x8493520A9FC1F43EAF22AC885962B38C)
Полное имя : Неверная (Trolosa).mkv
Формат : Matroska
Версия формата : Version 4 / Version 2
Размер файла : 2,18 Гбайт
Продолжительность : 2 ч. 27 м.
Общий поток : 2107 Кбит/сек
Название фильма : Неверная | Trolosa
Дата кодирования : UTC 2015-06-25 11:48:12
Программа кодирования : mkvmerge v8.0.0 ('Til The Day That I Die') 64bit
Библиотека кодирования : libebml v1.3.1 + libmatroska v1.4.2
DURATION : 02:23:43.996000000
NUMBER_OF_FRAMES : 1496
NUMBER_OF_BYTES : 90290
_STATISTICS_WRITING_APP : mkvmerge v8.0.0 ('Til The Day That I Die') 64bit
_STATISTICS_WRITING_DATE_UTC : 2015-06-25 11:48:12
_STATISTICS_TAGS : BPS DURATION NUMBER_OF_FRAMES NUMBER_OF_BYTES
Видео
Идентификатор : 1
Формат : AVC
Формат/Информация : Advanced Video Codec
Профиль формата : High@L4.1
Параметр CABAC формата : Да
Параметр ReFrames формата : 14 кадров
Идентификатор кодека : V_MPEG4/ISO/AVC
Продолжительность : 2 ч. 27 м.
Битрейт : 1721 Кбит/сек
Ширина : 720 пикселей
Высота : 576 пикселей
Соотношение сторон : 16:9
Режим частоты кадров : Постоянный
Частота кадров : 25,000 кадров/сек
Стандарт вещания : PAL
Цветовое пространство : YUV
Субдискретизация насыщенности : 4:2:0
Битовая глубина : 8 бит
Тип развёртки : Прогрессивная
Бит/(Пиксели*Кадры) : 0.166
Размер потока : 1,74 Гбайт (80%)
Заголовок : Trolösa | DVDRip by Gersuzu
Библиотека кодирования : x264 core 130 r2273 b3065e6
Настройки программы : cabac=1 / ref=14 / deblock=1:-3:-3 / analyse=0x3:0x113 / me=umh / subme=9 / psy=1 / psy_rd=1.00:0.20 / mixed_ref=1 / me_range=32 / chroma_me=1 / trellis=2 / 8x8dct=1 / cqm=0 / deadzone=21,11 / fast_pskip=0 / chroma_qp_offset=-3 / threads=6 / lookahead_threads=1 / sliced_threads=0 / nr=0 / decimate=1 / interlaced=0 / bluray_compat=0 / constrained_intra=0 / bframes=10 / b_pyramid=2 / b_adapt=2 / b_bias=0 / direct=3 / weightb=1 / open_gop=0 / weightp=2 / keyint=250 / keyint_min=25 / scenecut=40 / intra_refresh=0 / rc_lookahead=50 / rc=2pass / mbtree=1 / bitrate=1721 / ratetol=1.0 / qcomp=0.60 / qpmin=0 / qpmax=69 / qpstep=4 / cplxblur=20.0 / qblur=0.5 / vbv_maxrate=50000 / vbv_bufsize=50000 / nal_hrd=none / ip_ratio=1.40 / aq=1:1.00
Default : Да
Forced : Нет
Аудио #1
Идентификатор : 2
Формат : AC-3
Формат/Информация : Audio Coding 3
Расширение режима : CM (complete main)
Параметр Endianness формата : Big
Идентификатор кодека : A_AC3
Продолжительность : 2 ч. 27 м.
Вид битрейта : Постоянный
Битрейт : 192 Кбит/сек
Каналы : 2 канала
Расположение каналов : Front: L R
Частота : 48,0 КГц
Метод сжатия : С потерями
Размер потока : 203 Мбайт (9%)
Заголовок : VO [Денис Строев]
Язык : Russian
Default : Да
Forced : Нет
Аудио #2
Идентификатор : 3
Формат : AC-3
Формат/Информация : Audio Coding 3
Расширение режима : CM (complete main)
Параметр Endianness формата : Big
Идентификатор кодека : A_AC3
Продолжительность : 2 ч. 27 м.
Вид битрейта : Постоянный
Битрейт : 192 Кбит/сек
Каналы : 2 канала
Расположение каналов : Front: L R
Частота : 48,0 КГц
Метод сжатия : С потерями
Размер потока : 203 Мбайт (9%)
Заголовок : Original
Язык : Swedish
Default : Нет
Forced : Нет
Текст
Идентификатор : 4
Формат : UTF-8
Идентификатор кодека : S_TEXT/UTF8
Идентификатор кодека/Информация : UTF-8 Plain Text
Заголовок : Svanus
Язык : Russian
Default : Нет
Forced : Нет
Меню
00:00:00.000 : en:Chapter 1
00:13:21.600 : en:Chapter 2
00:23:43.680 : en:Chapter 3
00:34:39.840 : en:Chapter 4
00:45:59.520 : en:Chapter 5
00:57:12.000 : en:Chapter 6
01:09:54.720 : en:Chapter 7
01:22:33.600 : en:Chapter 8
01:33:29.280 : en:Chapter 9
01:48:30.720 : en:Chapter 10
02:00:21.600 : en:Chapter 11
02:15:10.080 : en:Chapter 12
[teatrix.ru].t5761.torrent 
Торрент: Зарегистрирован [ 2015-10-09 00:55 ] · 68F023C16C944F37235A8157C7F533DDA263D010

Скачать .torrent

Скачать

11 KB

Статус: проверено
Скачан: 0 раз
Размер: 2.18 GB
terms.php



Быстрый ответ

Имя:

      
Для отправки сообщений необходимо включить JavaScript
Показать сообщения:    

Текущее время: 05-Дек 13:33

Часовой пояс: UTC + 3


Вы можете начинать темы
Вы можете отвечать на сообщения
Вы не можете редактировать свои сообщения
Вы не можете удалять свои сообщения
Вы не можете голосовать в опросах
Вы не можете прикреплять файлы к сообщениям
Вы можете скачивать файлы