Веснушка / Имон / Eamon (Маргарет Коркери / Margaret Corkery) [2009, Ирландия, черная комедия, DVB-AVC] DVO (Kino Polska)


Статистика раздачи [Обновить пиров]
Размер:  566 MB   |    Зарегистрирован:  1 год 2 месяца   |    Скачан:  0 раз

Полного источника не было: Никогда

 
   
 
 
 

[Цитировать]

Веснушка
Eamon- Страна: Ирландия
Жанр: черная комедия
Год выпуска: 2009
Продолжительность: 01:21:25Перевод: Профессиональный (двухголосый закадровый) по заказу Kino Polska на производственно-технической базе Студии "Акцент"
Cубтитры: нет
Режиссер: Маргарет Коркери / Margaret Corkery
В ролях: Роберт Доннелли / Robert Donnelly (Eamon), Эми Кирван / Amy Kirwan (Grace), Даррен Хейли / Darren Healy (Daniel)
Описание: Семейные выходные разрушительного любовного треугольника: между Веснушкой, маленьким мальчиком с поведенческими проблемами, его эгоистичной матерью Грейс и его сексуально неудовлетворенным отцом Даниеля.
Доп. информация: Filmbox Arthouse IPTV
Награды: приз "Независимая камера" Karlovy Vary International Film Festival 2009; 3 номинации Irish Film and Television Awards 2010 (лучший фильм, сценарий, актриса - Amy Kirwan); номинация на Гран-при в секции "Новые таланты" Taipei Film Festival 2010; номинация на Гран-при жюри Annonay International Festival of First Films 2010.

Качество видео: DVB-AVC
Формат видео: MKV
Видео: AVC (H.264), 720x576@1024x576 (16:9), 25 fps, ~825 kbps avg, 0.080 bit/pixel
Аудио: MPEG Audio 2, 2 ch, 48 kHz, ~128.00 kbps avg

MediaInfo

ОбщееУникальный идентификатор : 217097524714740748896016113538748117899 (0xA353765DE22551418D02C9B766A7F38B)Полное имя : F:\My Torrents 3\[apreder]Eamon(2009)DVB.mkvФормат : MatroskaВерсия формата : Version 2Размер файла : 566 МбайтПродолжительность : 1 ч. 21 м.Общий поток : 972 Кбит/секДата кодирования : UTC 2015-06-24 15:16:12Программа кодирования : mkvmerge v8.0.0 ('Til The Day That I Die') 64bitБиблиотека кодирования : libebml v1.3.1 + libmatroska v1.4.2
ВидеоИдентификатор : 2Формат : AVCФормат/Информация : Advanced Video CodecПрофиль формата : Main@L3Параметр CABAC формата : ДаПараметр ReFrames формата : 3 кадраИдентификатор кодека : V_MPEG4/ISO/AVCПродолжительность : 1 ч. 21 м.Битрейт : 825 Кбит/секШирина : 720 пикселейВысота : 576 пикселейСоотношение сторон : 16:9Соотношение сторон в оригинале : 16:9Режим частоты кадров : ПостоянныйЧастота кадров : 25,000 кадров/секСтандарт вещания : ComponentЦветовое пространство : YUVСубдискретизация насыщенности : 4:2:0Битовая глубина : 8 битТип развёртки : ЧересстрочнаяПорядок развёртки : Верхнее поле первоеБит/(Пиксели*Кадры) : 0.080Размер потока : 480 Мбайт (85%)Default : ДаForced : Нетcolour_range : LimitedОсновные цвета : BT.601 PALХарактеристики трансфера : BT.470 System B, BT.470 System GКоэффициенты матрицы : BT.601
АудиоИдентификатор : 1Формат : MPEG AudioВерсия формата : Version 1Профиль формата : Layer 2Идентификатор кодека : A_MPEG/L2Идентификатор кодека/Подсказка : MP2Продолжительность : 1 ч. 21 м.Вид битрейта : ПостоянныйБитрейт : 128 Кбит/секКаналы : 2 каналаЧастота : 48,0 КГцМетод сжатия : С потерямиЗадержка видео : -24 мс.Размер потока : 74,5 Мбайт (13%)Язык : RussianDefault : ДаForced : Нет

Скриншот c названием фильма

Скриншоты


Резервные скриншоты


-[2'377]
[teatrix.ru].t5763.torrent 
Торрент: Зарегистрирован [ 2015-10-09 00:55 ] · 23D33F4CDDAB76574C9B7B392B3761A7C8E4CA7D

Скачать .torrent

Скачать

12 KB

Статус: проверено
Скачан: 0 раз
Размер: 566 MB
terms.php



Быстрый ответ

Имя:

      
Для отправки сообщений необходимо включить JavaScript
Показать сообщения:    

Текущее время: 09-Дек 18:35

Часовой пояс: UTC + 3


Вы можете начинать темы
Вы можете отвечать на сообщения
Вы не можете редактировать свои сообщения
Вы не можете удалять свои сообщения
Вы не можете голосовать в опросах
Вы не можете прикреплять файлы к сообщениям
Вы можете скачивать файлы