Облако / Nuage (Себастьен Бетбедер / Sebastien Betbeder) [2007, Франция, драма, DVB-AVC] DVO (Kino Polska)


Статистика раздачи [Обновить пиров]
Размер:  333 MB   |    Зарегистрирован:  1 год 1 месяц   |    Скачан:  0 раз

Полного источника не было: Никогда

 
   
 
 
 

[Цитировать]

Облако
Nuage- Страна: Франция
Жанр: драма
Год выпуска: 2007
Продолжительность: 01:17:26Перевод: Профессиональный (двухголосый закадровый) по заказу Kino Polska на производственно-технической базе Студии "Акцент"
Cубтитры: нет
Режиссер: Себастьен Бетбедер / Sébastien Betbeder
В ролях: Адриен Мишо / Adrien Michaux (Simon), Натали Бутефё / Nathalie Boutefeu (Clara), Брюно Сермонн / Bruno Sermonne (Le père), Орор Клеман / Aurore Clément (Marianne), Брюс Майерс / Bruce Myers (Franz), Лу Кастель / Lou Castel (Le médecin), Франсуа Негре / François Négret (L'ami)
Описание: Клара и ее отец, художник-фотограф, ждут возвращения таинственно исчезнувшей матери, которая тем временем пересекает путь молодого человека Симона в соседнем городке. По небу плывут облака, погружая лица в тревожные тени… Вскоре свет меркнет в глазах Симона…
Доп. информация: Filmbox Arthouse IPTV
Номинация на "Золотой леопард" в секции "Режиссеры настоящего" Locarno International Film Festival 2007.

Качество видео: DVB-AVC
Формат видео: MKV
Видео: AVC (H.264), 720x576@1024x576 (16:9), 25 fps, ~462 kbps avg, 0.047 bit/pixel
Аудио: MPEG Audio 2, 2 ch, 48 kHz, ~128.00 kbps avg

MediaInfo

ОбщееУникальный идентификатор : 223997542531320624438611156010392917450 (0xA8845B82B256A9D585FC670A48E895CA)Полное имя : F:\My Torrents 3\[apreder]Nuage(2007)DVB.mkvФормат : MatroskaВерсия формата : Version 2Размер файла : 333 МбайтПродолжительность : 1 ч. 17 м.Общий поток : 602 Кбит/секДата кодирования : UTC 2015-06-24 14:34:57Программа кодирования : mkvmerge v8.0.0 ('Til The Day That I Die') 64bitБиблиотека кодирования : libebml v1.3.1 + libmatroska v1.4.2
ВидеоИдентификатор : 2Формат : AVCФормат/Информация : Advanced Video CodecПрофиль формата : Main@L3Параметр CABAC формата : ДаПараметр ReFrames формата : 3 кадраИдентификатор кодека : V_MPEG4/ISO/AVCПродолжительность : 1 ч. 17 м.Битрейт : 462 Кбит/секШирина : 720 пикселейВысота : 576 пикселейСоотношение сторон : 16:9Соотношение сторон в оригинале : 16:9Режим частоты кадров : ПостоянныйЧастота кадров : 23,438 кадра/секЧастота кадров в оригинале : 25,000 кадров/секСтандарт вещания : ComponentЦветовое пространство : YUVСубдискретизация насыщенности : 4:2:0Битовая глубина : 8 битТип развёртки : ЧересстрочнаяПорядок развёртки : Верхнее поле первоеБит/(Пиксели*Кадры) : 0.047Размер потока : 256 Мбайт (77%)Default : ДаForced : Нетcolour_range : LimitedОсновные цвета : BT.601 PALХарактеристики трансфера : BT.470 System B, BT.470 System GКоэффициенты матрицы : BT.601
АудиоИдентификатор : 1Формат : MPEG AudioВерсия формата : Version 1Профиль формата : Layer 2Идентификатор кодека : A_MPEG/L2Идентификатор кодека/Подсказка : MP2Продолжительность : 1 ч. 17 м.Вид битрейта : ПостоянныйБитрейт : 128 Кбит/секКаналы : 2 каналаЧастота : 48,0 КГцМетод сжатия : С потерямиЗадержка видео : -16 мс.Размер потока : 70,9 Мбайт (21%)Язык : RussianDefault : ДаForced : Нет

Скриншот c названием фильма

Скриншоты


Резервные скриншоты


-[2'376]
[teatrix.ru].t5764.torrent 
Торрент: Зарегистрирован [ 2015-10-09 00:55 ] · 5DF79880D298A96B1E4999CD5203D325DAF0BB61

Скачать .torrent

Скачать

14 KB

Статус: проверено
Скачан: 0 раз
Размер: 333 MB
terms.php



Быстрый ответ

Имя:

      
Для отправки сообщений необходимо включить JavaScript
Показать сообщения:    

Текущее время: 08-Дек 19:04

Часовой пояс: UTC + 3


Вы можете начинать темы
Вы можете отвечать на сообщения
Вы не можете редактировать свои сообщения
Вы не можете удалять свои сообщения
Вы не можете голосовать в опросах
Вы не можете прикреплять файлы к сообщениям
Вы можете скачивать файлы