Аники Бобо / Aniki Bóbó (Мануэл ди Оливейра / Manoel de Oliveira) [1942, Португалия, комедия, детский, DVDRip] VO + Sub Rus + Original Por


Статистика раздачи [Обновить пиров]
Размер:  1.09 GB   |    Зарегистрирован:  1 год 2 месяца   |    Скачан:  0 раз

Полного источника не было: Никогда

 
   
 
 
 

[Цитировать]

Аники Бобо / Aniki Bóbó
Страна: Португалия
Жанр: комедия, детский
Год выпуска: 1942
Продолжительность: 01:08:11
Перевод: Одноголосый закадровый
Cубтитры: русские
Оригинальная аудиодорожка: португальский
Режиссер: Мануэл ди Оливейра / Manoel de Oliveira
В ролях: Америко Ботельо, Фелисиано Дэвид, Мануэль Де Азеведо, Наскрименто Фернандес, Фернанда Матос, Рафаэль Мота, Антонио Пальма, Армандо Педро, Антонио Мелу Перейра, Пинто Родригез
Описание: Фильм о нескольких днях из жизни португальских мальчишек. Задиристому Эдуардо и вечно попадающему в неприятности Карлито нравится одна и та же девочка - Терезинья. Оба ищут её внимания разными путями - Эдуардо демонстрирует свою силу, ловкость и лидерские качества, а Карлито добывает Терезинье красивую куклу. Когда с Эдуардо происходит несчастный случай, все обвинения падают на голову Карлито, однако тому помогает человек, от которого он меньше всего мог ожидать помощи - владелец магазина, откуда пропала та самая кукла.
Сэмпл: http://multi-up.com/1055029
Качество видео: DVDRip
Формат видео: AVI
Видео: MPEG-4 Visual at 1897 Кбит/сек : 704 x 528 (1.333) at 25.000 fps
Аудио 1: AC-3 at 192 Кбит/сек : 2 канала, 48,0 КГц(Русский)
Аудио 2: AC-3 at 192 Кбит/сек : 2 канала, 48,0 КГц(Португальский)
Формат субтитров: softsub (SRT)
Доп. информация о субтитрах: Русские внешние (Dziga Murnau)

MediaInfo

Общее
Полное имя : F:\С моей озвучкой\Аники Бобо\Aniki Bóbó.avi
Формат : AVI
Формат/Информация : Audio Video Interleave
Размер файла : 1,09 Гбайт
Продолжительность : 1 ч. 8 м.
Общий поток : 2296 Кбит/сек
Программа кодирования : VirtualDubModRus 1.5.10.2 (build 2542/release)
Библиотека кодирования : VirtualDubMod build 2542/release
Видео
Идентификатор : 0
Формат : MPEG-4 Visual
Профиль формата : Advanced Simple@L5
Параметр BVOP формата : 1
Параметр QPel формата : Нет
Параметр GMC формата : Без точки перехода
Параметр матрицы формата : Default (MPEG)
Идентификатор кодека : XVID
Идентификатор кодека/Подсказка : XviD
Продолжительность : 1 ч. 8 м.
Битрейт : 1897 Кбит/сек
Ширина : 704 пикселя
Высота : 528 пикселей
Соотношение сторон : 4:3
Частота кадров : 25,000 кадров/сек
Цветовое пространство : YUV
Субдискретизация насыщенности : 4:2:0
Битовая глубина : 8 бит
Тип развёртки : Прогрессивная
Метод сжатия : С потерями
Бит/(Пиксели*Кадры) : 0.204
Размер потока : 925 Мбайт (83%)
Библиотека кодирования : XviD 1.2.1 (UTC 2008-12-04)
Аудио #1
Идентификатор : 1
Формат : AC-3
Формат/Информация : Audio Coding 3
Расширение режима : CM (complete main)
Параметр Endianness формата : Big
Идентификатор кодека : 2000
Продолжительность : 1 ч. 8 м.
Вид битрейта : Постоянный
Битрейт : 192 Кбит/сек
Каналы : 2 канала
Расположение каналов : Front: L R
Частота : 48,0 КГц
Битовая глубина : 16 бит
Метод сжатия : С потерями
Размер потока : 93,6 Мбайт (8%)
Выравнивание : Разделение по промежуткам
Продолжительность промежутка : 40 мс. (1,00 видеокадр)
Время предзагрузки промежутка : 500 мс.
Аудио #2
Идентификатор : 2
Формат : AC-3
Формат/Информация : Audio Coding 3
Расширение режима : CM (complete main)
Параметр Endianness формата : Big
Идентификатор кодека : 2000
Продолжительность : 1 ч. 8 м.
Вид битрейта : Постоянный
Битрейт : 192 Кбит/сек
Каналы : 2 канала
Расположение каналов : Front: L R
Частота : 48,0 КГц
Битовая глубина : 16 бит
Метод сжатия : С потерями
Задержка видео : 16 мс.
Размер потока : 93,6 Мбайт (8%)
Выравнивание : Разделение по промежуткам
Продолжительность промежутка : 40 мс. (1,00 видеокадр)
Время предзагрузки промежутка : 500 мс.

Скриншоты

[teatrix.ru].t5767.torrent 
Торрент: Зарегистрирован [ 2015-10-09 00:55 ] · 0497E1C594952E5B4C7A44FDF108B5FF90766062

Скачать .torrent

Скачать

12 KB

Статус: проверено
Скачан: 0 раз
Размер: 1.09 GB
terms.php



Быстрый ответ

Имя:

      
Для отправки сообщений необходимо включить JavaScript
Показать сообщения:    

Текущее время: 11-Дек 14:54

Часовой пояс: UTC + 3


Вы можете начинать темы
Вы можете отвечать на сообщения
Вы не можете редактировать свои сообщения
Вы не можете удалять свои сообщения
Вы не можете голосовать в опросах
Вы не можете прикреплять файлы к сообщениям
Вы можете скачивать файлы