Дюна / Dune (Дэвид Линч / David Lynch) [1984, США, Фантастика, приключения, HDRip] [Расширенная версия] DVO (Tycoon) + Sub Rus + Original Eng


 

[Цитировать]

Дюна / Dune / Расширенная версия«Мир за гранью воображения» Страна: США
Жанр: Фантастика, приключения
Год выпуска: 1984
Продолжительность: 02:57:14
Перевод: Профессиональный (двухголосый закадровый) Tycoon
Cубтитры: русские (внешние)
Оригинальная аудиодорожка: английский
Режиссер: Дэвид Линч / David Lynch
В ролях: Кайл МакЛахлан, Юрген Прохнов, Франческа Эннис, Патрик Стюарт, Ричард Джордан, Фредди Джонс, Дин Стокуэлл, Кеннет МакМиллан, Стинг, Леонардо Чимино
Описание: Планета Арракис, также известная под названием Дюна, год 10991. Это арена борьбы между злом и благородством, мир тончайших и опаснейших интриг. Гигантские песчаные черви длиной в целую милю сторожат бесценное сокровище — меланжевую пряность, позволяющую путешествовать сквозь Пространство и Время. Тот, кто контролирует пряность, контролирует Вселенную. Народ Дюны ожидает пришествия Мессии, который поведет их на священную войну против династии злобных Харконненов. И Мессия является. Им становится юный Пол Атрейдес, сын герцога Лито, предательски убитого Харконненами с одобрения Императора. Полу предстоит великая миссия, которая навсегда изменит судьбу всей галактической империи…

Качество видео: HDRip (Исх. BDRip 720p)
Формат видео: AVI
Видео: 720x304 (2.37:1), 23.976 fps, XviD build 73 ~1605 kbps avg, 0.31 bit/pixel
Аудио: 48 kHz, AC3 Dolby Digital, 3/2 (L,C,R,l,r) + LFE ch, ~448 kbps (Русский)
Аудио 2: 48 kHz, AC3 Dolby Digital, 2/0 (L,R) ch, ~192 kbps (Английский)
Формат субтитров: softsub (SRT)

MediaInfo

Общее
Полное имя : S:\Фильмы\Дюна.1984. HDRip. Расширенная версия. 2.8 (AleksSin)\Дюна.1984. HDRip. Расширенная версия. (AleksSin).avi
Формат : AVI
Формат/Информация : Audio Video Interleave
Профиль формата : OpenDML
Размер файла : 2,80 Гбайт
Продолжительность : 2 ч. 57 м.
Общий поток : 2261 Кбит/сек
Программа кодирования : VirtualDubMod 1.5.10.3 (build 2550/release)
Библиотека кодирования : VirtualDubMod build 2550/release
Видео
Идентификатор : 0
Формат : MPEG-4 Visual
Профиль формата : Advanced Simple@L5
Параметр BVOP формата : 1
Параметр QPel формата : Нет
Параметр GMC формата : Без точки перехода
Параметр матрицы формата : Выборочная
Идентификатор кодека : XVID
Идентификатор кодека/Подсказка : XviD
Продолжительность : 2 ч. 57 м.
Битрейт : 1605 Кбит/сек
Ширина : 720 пикселей
Высота : 304 пикселя
Соотношение сторон : 2,35:1
Частота кадров : 23,976 кадра/сек
Цветовое пространство : YUV
Субдискретизация насыщенности : 4:2:0
Битовая глубина : 8 бит
Тип развёртки : Прогрессивная
Метод сжатия : С потерями
Бит/(Пиксели*Кадры) : 0.306
Размер потока : 1,99 Гбайт (71%)
Библиотека кодирования : XviD 73
Аудио #1
Идентификатор : 1
Формат : AC-3
Формат/Информация : Audio Coding 3
Расширение режима : CM (complete main)
Параметр Endianness формата : Big
Идентификатор кодека : 2000
Продолжительность : 2 ч. 57 м.
Вид битрейта : Постоянный
Битрейт : 448 Кбит/сек
Каналы : 6 каналов
Расположение каналов : Front: L C R, Side: L R, LFE
Частота : 48,0 КГц
Битовая глубина : 16 бит
Метод сжатия : С потерями
Размер потока : 568 Мбайт (20%)
Выравнивание : Разделение по промежуткам
Продолжительность промежутка : 42 мс. (1,00 видеокадр)
Время предзагрузки промежутка : 500 мс.
Аудио #2
Идентификатор : 2
Формат : AC-3
Формат/Информация : Audio Coding 3
Расширение режима : CM (complete main)
Параметр Endianness формата : Big
Идентификатор кодека : 2000
Продолжительность : 2 ч. 57 м.
Вид битрейта : Постоянный
Битрейт : 192 Кбит/сек
Каналы : 2 канала
Расположение каналов : Front: L R
Частота : 48,0 КГц
Битовая глубина : 16 бит
Метод сжатия : С потерями
Размер потока : 243 Мбайт (8%)
Выравнивание : Разделение по промежуткам
Продолжительность промежутка : 42 мс. (1,00 видеокадр)
Время предзагрузки промежутка : 500 мс.

Скриншот c названием фильма

Скриншоты




Показать сообщения:    

Текущее время: 06-Дек 20:59

Часовой пояс: UTC + 3


Вы не можете начинать темы
Вы не можете отвечать на сообщения
Вы не можете редактировать свои сообщения
Вы не можете удалять свои сообщения
Вы не можете голосовать в опросах
Вы не можете прикреплять файлы к сообщениям
Вы не можете скачивать файлы