Офелия / Ophelia (Клод Шаброль / Claude Chabrol) [1963, Франция, драма, DVDRip] DVO (Омикрон) + Sub Rus (VPN777) + Original Fre


Статистика раздачи [Обновить пиров]
Размер:  1.47 GB   |    Зарегистрирован:  1 год 1 месяц   |    Скачан:  1 раз

Полного источника не было: 3 месяца 17 дней

 
   
 
 
 

[Цитировать]

Офелия / Ophélia / Ophelia
Страна: Франция
Жанр: драма
Год выпуска: 1963
Продолжительность: 01:39:01
Перевод: Профессиональный (двухголосый закадровый) - Студия "Омикрон"
Cубтитры: русские(VPN777)
Оригинальная аудиодорожка: французский
Режиссер: Клод Шаброль / Claude Chabrol
В ролях: Алида Валли, Клод Серваль, Андре Жослин, Жюльет Майниель, Робер Бюрнье, Жан-Луи Мори, Саша Брике, Лилиан Давид, Пьер Вернье, Серж Бенто ...
Описание: Мрачная история о молодом человеке, который, в лучших традициях Шекспира, мстит дяде, женившемуся на его матери…- --Ophelia (1963)_DVDRip_Sample_.avi--Качество видео: DVDRip
Формат видео: AVI
Видео: 656x400 (1.64:1), 25 fps, XviD build 50 ~1721 kbps avg, 0.26 bit/pixel
Аудио 1: 48 kHz, AC3 Dolby Digital, 2/0 (L,R) ch, ~192 kbps, Русский
Аудио 2: 48 kHz, AC3 Dolby Digital, 2/0 (L,R) Surround Encoded ch, ~192 kbps, французский
Формат субтитров: softsub (SRT)
Доп. информация о субтитрах: VPN777

AviInfo

File: Ophelia (1963)_DVDRip_.avi
Title: Ophelia (1963)
Copyleft: Ripped_by_rjhlb777
Genre: Drama
Category: Movie
Comment: DVO (Студия "Омикрон") + Original Fre
FileSize: 1502.43 Mb ( 1 575 409 664 bytes )
Play length: 01:39:01.080 (148527 frames)
Subtitles: Rus_(VPN777)_ (SubRip format)
Video: 656x400 (1.64:1), 25 fps, XviD build 50 ~1721 kbps avg, 0.26 bit/pixel
Audio #1: 48 kHz, AC3 Dolby Digital, 2/0 (L,R) ch, ~192 kbps
Audio #2: 48 kHz, AC3 Dolby Digital, 2/0 (L,R) Surround Encoded ch, ~192 kbps

MediaInfo

General
Complete name : C:\Temp\_RELEASES_\Ophelia (1963)_DVDRip_\Ophelia (1963)_DVDRip_.avi
Format : AVI
Format/Info : Audio Video Interleave
File size : 1.47 GiB
Duration : 1h 39mn
Overall bit rate : 2 121 Kbps
Movie name : Ophelia (1963)
Genre : Drama
Writing application : VirtualDubMod 1.5.10.3 | www.virtualdub-fr.org || (build 2550/release)
Original source form/Name : Movie
Copyright : Ripped_by_rjhlb777
Comment : DVO (Студия "Омикрон") + Original Fre
Video
ID : 0
Format : MPEG-4 Visual
Format profile : Advanced Simple@L5
Format settings, BVOP : 1
Format settings, QPel : No
Format settings, GMC : No warppoints
Format settings, Matrix : Default (MPEG)
Codec ID : XVID
Codec ID/Hint : XviD
Duration : 1h 39mn
Bit rate : 1 723 Kbps
Width : 656 pixels
Height : 400 pixels
Display aspect ratio : 16:10
Frame rate : 25.000 fps
Color space : YUV
Chroma subsampling : 4:2:0
Bit depth : 8 bits
Scan type : Progressive
Compression mode : Lossy
Bits/(Pixel*Frame) : 0.263
Stream size : 1.19 GiB (81%)
Writing library : XviD 1.2.1 (UTC 2008-12-04)
Audio #1
ID : 1
Format : AC-3
Format/Info : Audio Coding 3
Mode extension : CM (complete main)
Format settings, Endianness : Big
Codec ID : 2000
Duration : 1h 39mn
Bit rate mode : Constant
Bit rate : 192 Kbps
Channel(s) : 2 channels
Channel positions : Front: L R
Sampling rate : 48.0 KHz
Bit depth : 16 bits
Compression mode : Lossy
Stream size : 136 MiB (9%)
Alignment : Split accross interleaves
Interleave, duration : 40 ms (1.00 video frame)
Interleave, preload duratio : 500 ms
Audio #2
ID : 2
Format : AC-3
Format/Info : Audio Coding 3
Format profile : Dolby Digital
Mode extension : CM (complete main)
Format settings, Endianness : Big
Codec ID : 2000
Duration : 1h 39mn
Bit rate mode : Constant
Bit rate : 192 Kbps
Channel(s) : 2 channels
Channel positions : Front: L R
Sampling rate : 48.0 KHz
Bit depth : 16 bits
Compression mode : Lossy
Stream size : 136 MiB (9%)
Alignment : Split accross interleaves
Interleave, duration : 40 ms (1.00 video frame)
Interleave, preload duratio : 500 ms
[teatrix.ru].t5772.torrent 
Торрент: Зарегистрирован [ 2015-10-10 00:35 ] · 63FB744E9914E46836EBB52BBDCA41F7CF486CEA

Скачать .torrent

Скачать

15 KB

Статус: проверено
Скачан: 1 раз
Размер: 1.47 GB
terms.php



Быстрый ответ

Имя:

      
Для отправки сообщений необходимо включить JavaScript
Показать сообщения:    

Текущее время: 08-Дек 21:12

Часовой пояс: UTC + 3


Вы можете начинать темы
Вы можете отвечать на сообщения
Вы не можете редактировать свои сообщения
Вы не можете удалять свои сообщения
Вы не можете голосовать в опросах
Вы не можете прикреплять файлы к сообщениям
Вы можете скачивать файлы