Фавориты луны / Les Favoris De La Lune (Отар Иоселиани / Otar Iosseliani) [1984, Франция, СССР, Италия, драма, детектив, HDRip] Dub + Sub Rus, Eng + Original Fre


 

[Цитировать]

Фавориты луны / Les Favoris De La Lune
Страна: Франция, СССР, Италия
Жанр: драма, детектив
Год выпуска: 1984
Продолжительность: 01:42:31
Перевод: Профессиональный (дублированный)
Cубтитры: русские, английские
Оригинальная аудиодорожка: французский

Режиссер: Отар Иоселиани / Otar Iosseliani
В ролях: Катя Рюпе, Аликс Де Монтегю, Франсуа Мишель, Жан-Пьер Бовяла, Паскаль Обье, Кристиана Байли, Бернард Эйженшитц, Ганс Питер Клоос
Описание: Картина XIX века и китайский фарфор XVIII века попадают в водоворот интриг, афер, законных и не очень манипуляций дюжины персонажей из самых разных слоев общества от воришек и проституток до звезд панк-рока и террористических группировок с неясными целями и задачами.
Качество видео: HDRip
Формат видео: AVI
Видео: 720x432 (1.67:1), 23.976 fps, XviD build 73 ~1828 kbps avg, 0.25 bit/pixel
Аудио: 48 kHz, AC3 Dolby Digital, 2/0 (L,R) ch, ~192 kbps - дубляж
Аудио: 48 kHz, AC3 Dolby Digital, 2/0 (L,R) ch, ~192 kbps - оригинал (отдельным файлом)

MediaInfo

Общее
Полное имя : H:\Les.favoris.de.la.lune.1984.hdrip_[1.46]_[teko]\Les.favoris.de.la.lune.1984.hdrip_[1.46].avi
Формат : AVI
Формат/Информация : Audio Video Interleave
Размер файла : 1,45 Гбайт
Продолжительность : 1 ч. 42 м.
Общий поток : 2030 Кбит/сек
Программа кодирования : VirtualDubMod 1.5.10.3 | www.virtualdub-fr.org || (build 2550/release)
Библиотека кодирования : VirtualDubMod build 2550/release
Видео
Идентификатор : 0
Формат : MPEG-4 Visual
Профиль формата : Advanced Simple@L5
Параметр BVOP формата : 1
Параметр QPel формата : Нет
Параметр GMC формата : Без точки перехода
Параметр матрицы формата : Выборочная
Идентификатор кодека : XVID
Идентификатор кодека/Подсказка : XviD
Продолжительность : 1 ч. 42 м.
Битрейт : 1828 Кбит/сек
Ширина : 720 пикселей
Высота : 432 пикселя
Соотношение сторон : 1,667
Частота кадров : 23,976 кадра/сек
Цветовое пространство : YUV
Субдискретизация насыщенности : 4:2:0
Битовая глубина : 8 бит
Тип развёртки : Прогрессивная
Метод сжатия : С потерями
Бит/(Пиксели*Кадры) : 0.245
Размер потока : 1,31 Гбайт (90%)
Библиотека кодирования : XviD 73
Аудио
Идентификатор : 1
Формат : AC-3
Формат/Информация : Audio Coding 3
Расширение режима : CM (complete main)
Параметр Endianness формата : Big
Идентификатор кодека : 2000
Продолжительность : 1 ч. 42 м.
Вид битрейта : Постоянный
Битрейт : 192 Кбит/сек
Каналы : 2 канала
Расположение каналов : Front: L R
Частота : 48,0 КГц
Битовая глубина : 16 бит
Метод сжатия : С потерями
Размер потока : 141 Мбайт (9%)
Выравнивание : Разделение по промежуткам
Продолжительность промежутка : 42 мс. (1,00 видеокадр)
Время предзагрузки промежутка : 500 мс.



Показать сообщения:    

Текущее время: 08-Дек 09:05

Часовой пояс: UTC + 3


Вы не можете начинать темы
Вы не можете отвечать на сообщения
Вы не можете редактировать свои сообщения
Вы не можете удалять свои сообщения
Вы не можете голосовать в опросах
Вы не можете прикреплять файлы к сообщениям
Вы не можете скачивать файлы