Юный поэт / Un jeune poete (Дамьен Манивель / Damien Manivel) [2014, Франция, драма, комедия, DVB-AVC] DVO (Kino Polska)


Статистика раздачи [Обновить пиров]
Размер:  390 MB   |    Зарегистрирован:  1 год 1 месяц   |    Скачан:  0 раз

Полного источника не было: Никогда

 
   
 
 
 

[Цитировать]

Юный поэт
Un jeune poète- Страна: Франция
Жанр: драма, комедия
Год выпуска: 2014
Продолжительность: 01:10:54Перевод: Профессиональный (двухголосый закадровый) по заказу Kino Polska на производственно-технической базе Студии "Акцент"
Cубтитры: нет
Режиссер: Дамьен Манивель / Damien Manivel
В ролях: Реми Таффанель / Rémi Taffanel (Rémi), Леонор Фернандес / Léonore Fernandes (Léonore), Энцо Вассалло / Enzo Vassallo (Enzo)
Описание: Реми мечтает стать поэтом и бродит по улицам маленького приморского городка. В поисках сюжета для стихов он отправляется на кладбище, забирается на гору, плавает в море, посещает библиотеку, ищет свою музу в барах, где пьет в надежде высечь искру вдохновения…
Доп. информация: Filmbox Arthouse IPTV
Награды: особое упоминание жюри в секции "Режиссеры настоящего" Locarno International Film Festival 2014 + номинация на "Золотой леопард" в секции "Режиссеры настоящего".

Качество видео: DVB-AVC
Формат видео: MKV
Видео: AVC (H.264), 720x576@1024x576 (16:9), 25 fps, ~626 kbps avg, 0.060 bit/pixel
Аудио: MPEG Audio 2, 2 ch, 48 kHz, ~128.00 kbps avg

MediaInfo

ОбщееУникальный идентификатор : 172127411828244211296212638098029200346 (0x817E889E87E64ED487F0024FD83EC3DA)Полное имя : F:\My Torrents 3\[apreder]Un_jeune_poete(2014)DVB.mkvФормат : MatroskaВерсия формата : Version 2Размер файла : 390 МбайтПродолжительность : 1 ч. 10 м.Общий поток : 769 Кбит/секДата кодирования : UTC 2015-06-20 17:28:44Программа кодирования : mkvmerge v8.0.0 ('Til The Day That I Die') 64bitБиблиотека кодирования : libebml v1.3.1 + libmatroska v1.4.2
ВидеоИдентификатор : 2Формат : AVCФормат/Информация : Advanced Video CodecПрофиль формата : Main@L3Параметр CABAC формата : ДаПараметр ReFrames формата : 3 кадраИдентификатор кодека : V_MPEG4/ISO/AVCПродолжительность : 1 ч. 10 м.Битрейт : 626 Кбит/секШирина : 720 пикселейВысота : 576 пикселейСоотношение сторон : 16:9Режим частоты кадров : ПостоянныйЧастота кадров : 25,000 кадров/секСтандарт вещания : ComponentЦветовое пространство : YUVСубдискретизация насыщенности : 4:2:0Битовая глубина : 8 битТип развёртки : ЧересстрочнаяПорядок развёртки : Верхнее поле первоеБит/(Пиксели*Кадры) : 0.060Размер потока : 317 Мбайт (81%)Default : ДаForced : Нетcolour_range : LimitedОсновные цвета : BT.601 PALХарактеристики трансфера : BT.470 System B, BT.470 System GКоэффициенты матрицы : BT.601
АудиоИдентификатор : 1Формат : MPEG AudioВерсия формата : Version 1Профиль формата : Layer 2Идентификатор кодека : A_MPEG/L2Идентификатор кодека/Подсказка : MP2Продолжительность : 1 ч. 10 м.Вид битрейта : ПостоянныйБитрейт : 128 Кбит/секКаналы : 2 каналаЧастота : 48,0 КГцМетод сжатия : С потерямиЗадержка видео : -16 мс.Размер потока : 64,9 Мбайт (17%)Язык : RussianDefault : ДаForced : Нет

Скриншот c названием фильма

Скриншоты


Резервные скриншоты


-[2'354]
[teatrix.ru].t5775.torrent 
Торрент: Зарегистрирован [ 2015-10-10 00:35 ] · FD9F09C38EED7158BC250E48E872CF37E4010AC9

Скачать .torrent

Скачать

16 KB

Статус: проверено
Скачан: 0 раз
Размер: 390 MB
terms.php



Быстрый ответ

Имя:

      
Для отправки сообщений необходимо включить JavaScript
Показать сообщения:    

Текущее время: 09-Дек 18:31

Часовой пояс: UTC + 3


Вы можете начинать темы
Вы можете отвечать на сообщения
Вы не можете редактировать свои сообщения
Вы не можете удалять свои сообщения
Вы не можете голосовать в опросах
Вы не можете прикреплять файлы к сообщениям
Вы можете скачивать файлы