Крепыш / 10 дней в раю / Teddy Bear / 10 timer til Paradis (Мадс Маттисен / Mads Matthiesen) [2012, Дания, мелодрама, DVDRip] MVO


Статистика раздачи [Обновить пиров]
Размер:  745 MB   |    Зарегистрирован:  1 год 1 месяц   |    Скачан:  0 раз

Полного источника не было: Никогда

 
   
 
 
 

[Цитировать]

Крепыш / 10 дней в раю / Teddy Bear / 10 timer til Paradis Год выпуска: 2012.
Страна: Дания .
Жанр: Мелодрама.
Продолжительность: 01:35:54.
Перевод: Профессиональный (многоголосый закадровый).
Субтитры: нет.
Оригинальная аудио дорожка: нет.
Режиссер: Мадс Маттисен /Mads Matthiesen/.
В ролях:
Ким Колд, Дэвид Уинтерс, Эльзебет Стинтофт, Пер Отто Берсанг Расмуссен, Мия Мария Бэк, Джон Уинтерс, Ламаипорн Хоугор, Чанича Шиндеджаничакуль, Барбара Сатлер, Сонгпорн На Бангчанг, Джон Уинтерс, Павина Им-Эрб, Прап Порамабхути, Ева Томпсон, Ким Ланд.
Описание:
Суровый парень и профессиональный бодибилдер Деннис Питерсен похож на зелёного огра не только гигантским телом и каменной башкой, но и детской наивностью. Он подрабатывает охранником и живёт с сухонькой и седенькой мамой, которую во всем слушается. Он безнадежно мечтает о постоянной девушке, но все никак не складывается. И вот однажды, последовав примеру друга семьи, крепыш Деннис отправляется в Таиланд - ему рассказывали, что там девушек не счесть...
Доп. информация:
Киностудии: Beofilm, Minerva Film, SF Film Production.
Авторы сценария: Мадс Маттисен, Мартин Зандвлиет.
Оператор: Лауст Триер-Мёрк.
Продюсеры: Мортен Кьемс Юль, Оливер Экерманн, Михаэль Флейшер, ...
Композитор: Суне Мартин.
Художники: Томас Бремер, Ребекка Леве, Понг Сомпрасертсук, ...
Премьера: 22 января 2012 года.
Награды и номинации:
• 2012 - Amazonas Film Festival (Бразилия) - Награды в категориях "Лучший фильм" и "Лучший режиссер".
• 2012 - Athens International Film Festival (Греция) - Награда в категории "Лучший фильм".
• 2012 - Transilvania International Film Festival (Румыния) - Награда в категории "Лучший актер" (Ким Колд).
• 2012 - Sundance Film Festival (США) - Премия фестиваля. Номинация на большой приз жюри.
• 2012 - Art Film Festival (Словакия) - Номинация в категории "Лучший фильм".
• 2012 - Bodil Awards (Дания) - Номинации в категориях "Лучший фильм" и "Лучшая актриса второго плана" (Эльзебет Стинтофт).
• 2012 - Bombay International Film Festival (Индия) - Номинация на приз фестивался.
• 2012 - European Film Awards (Мальта) - Номинация в категории "Европейское открытие года".
• 2013 - Robert Festival (Дания) - Номинация в категории "Лучший фильм".

Еще постеры


Качество: DVDRip
Формат: AVI
Видео: 672x368 (1.83:1), 23.976 fps, XviD build 50 ~964 kbps avg, 0.16 bit/pixel
Аудио: 48 kHz, MPEG Layer 3, 2 ch, ~112.00 kbps avg

Отчет Media Info

Общее
Полное имя : Krepysh.2012.XviD.DVDRip.avi
Format : AVI
Format/Info : Audio Video Interleave
File size : 745 MiB
Duration : 1h 35mn
Overall bit rate : 1 085 Kbps
Movie name : Крепыш / Teddy Bear (2012) / Крепыш / Teddy Bear (2012)
Video
ID : 0
Format : MPEG-4 Visual
Format profile : Advanced Simple@L5
Format settings, BVOP : 1
Format settings, QPel : No
Format settings, GMC : No warppoints
Format settings, Matrix : Default (MPEG)
Codec ID : XVID
Codec ID/Hint : XviD
Duration : 1h 35mn
Bit rate : 964 Kbps
Width : 672 pixels
Height : 368 pixels
Display aspect ratio : 1.85:1
Frame rate : 23.976 fps
Color space : YUV
Chroma subsampling : 4:2:0
Bit depth : 8 bits
Scan type : Progressive
Compression mode : Lossy
Bits/(Pixel*Frame) : 0.163
Stream size : 661 MiB (89%)
Writing library : XviD 1.2.1 (UTC 2008-12-04)
Audio
ID : 1
Format : MPEG Audio
Format version : Version 1
Format profile : Layer 3
Mode : Joint stereo
Mode extension : MS Stereo
Codec ID : 55
Codec ID/Hint : MP3
Duration : 1h 35mn
Bit rate mode : Constant
Bit rate : 112 Kbps
Channel(s) : 2 channels
Sampling rate : 48.0 KHz
Compression mode : Lossy
Stream size : 76.8 MiB (10%)
Alignment : Split accross interleaves
Interleave, duration : 42 ms (1.00 video frame)
Interleave, preload duratio : 500 ms
Language : Russian / Russian / Русский

Скриншоты


Альтернативный хост


[teatrix.ru].t5776.torrent 
Торрент: Зарегистрирован [ 2015-10-10 00:35 ] · 64EC4136B8ECB3F5209BF045E6B7202679744D7A

Скачать .torrent

Скачать

15 KB

Статус: проверено
Скачан: 0 раз
Размер: 745 MB
terms.php



Быстрый ответ

Имя:

      
Для отправки сообщений необходимо включить JavaScript
Показать сообщения:    

Текущее время: 04-Дек 04:53

Часовой пояс: UTC + 3


Вы можете начинать темы
Вы можете отвечать на сообщения
Вы не можете редактировать свои сообщения
Вы не можете удалять свои сообщения
Вы не можете голосовать в опросах
Вы не можете прикреплять файлы к сообщениям
Вы можете скачивать файлы