Летучий голландец / De vliegende Hollander (Йос Стеллинг / Jos Stelling) [1995, Германия, Голландия, Бельгия, драма, притча, DVDRip] MVO (Selena International)


Статистика раздачи [Обновить пиров]
Размер:  1.46 GB   |    Зарегистрирован:  1 год 1 месяц   |    Скачан:  0 раз

Полного источника не было: Никогда

 
   
 
 
 

[Цитировать]

Летучий голландец / De vliegende Hollander
Страна: Германия, Голландия, Бельгия
Жанр: драма, притча
Год выпуска: 1995
Продолжительность: 02:02:53
Перевод: Профессиональный (многоголосый закадровый) - Selena International
Cубтитры: нет

Режиссер: Йос Стеллинг / Jos Stelling
В ролях: Рене Грутхоф, Вирл Доббелэр, Рене ван'т Хоф, Джин Бервутс, Жерар Тулен, Вилли Вандермёлен, Михил Грутхоф, Йоссе де Пау, Ингрид де Вос, Сенне Руффар
Описание: Фландрия, XVI век. Случайный сын проходимца доверяется байке сумасшедшего менестреля и отправляется на поиски отца к холодному морю. С собой он берет подругу, золотой потир и самое главное - веру в свою цель. Однако судьба старается отобрать у Голландца все, что у него есть, даже жизнь. Наивность и стремление к мечте обеспечивают герою удивительную живучесть в самых сложных ситуациях.
Этот фильм - авторское воплощение образа Летучего Голландца, одновременно иносказательное и буквальное. Здесь герой - одинокий корабль, ищущий моря и летящий против ветра обыденности. Что победит в этой борьбе - грязная реальность или наивная сказка?
Стеллинг в своем фильме «Летучий голландец», уникальном по образному решению, возвращается к замешенной на фольклоре проблематике своих ранних фильмов. Действие фильма разворачивается во Фландрии второй половины 16 века, в эпоху борьбы против испанского владычества и ужасов инквизиции. Восходящая к поэтике ренессансного «романа-дороги», она повествует о нелегком пути человека из народа, с детства уверовавшего в свою способность летать, как птица. Киноповествование пронизано оптимистическим, несмотря ни на что, ощущением пьянящего бытия и неистребимости жизни. Эта философская, эпическая костюмная лента отчетливо современна по режиссерскому мышлению и языку.

Качество видео: DVDRip
Формат видео: AVI
Видео: 704x304 (2.32:1), 25 fps, XviD build 73 ~1496 kbps avg, 0.28 bit/pixel
Аудио: 48 kHz, AC3 Dolby Digital, 2/0 (L,R) ch, ~192 kbps

MediaInfo

Общее
Полное имя : H:\De.Vliegende.Hollander.1995.dvdrip_[1.46]_[teko].avi
Формат : AVI
Формат/Информация : Audio Video Interleave
Размер файла : 1,46 Гбайт
Продолжительность : 2 ч. 2 м.
Общий поток : 1698 Кбит/сек
Программа кодирования : VirtualDubMod 1.5.10.3 | www.virtualdub-fr.org || (build 2550/release)
Библиотека кодирования : VirtualDubMod build 2550/release
Видео
Идентификатор : 0
Формат : MPEG-4 Visual
Профиль формата : Advanced Simple@L5
Параметр BVOP формата : 1
Параметр QPel формата : Нет
Параметр GMC формата : Без точки перехода
Параметр матрицы формата : Выборочная
Идентификатор кодека : XVID
Идентификатор кодека/Подсказка : XviD
Продолжительность : 2 ч. 2 м.
Битрейт : 1497 Кбит/сек
Ширина : 704 пикселя
Высота : 304 пикселя
Соотношение сторон : 2,35:1
Частота кадров : 25,000 кадров/сек
Цветовое пространство : YUV
Субдискретизация насыщенности : 4:2:0
Битовая глубина : 8 бит
Тип развёртки : Прогрессивная
Метод сжатия : С потерями
Бит/(Пиксели*Кадры) : 0.280
Размер потока : 1,28 Гбайт (88%)
Библиотека кодирования : XviD 73
Аудио
Идентификатор : 1
Формат : AC-3
Формат/Информация : Audio Coding 3
Расширение режима : CM (complete main)
Параметр Endianness формата : Big
Идентификатор кодека : 2000
Продолжительность : 2 ч. 2 м.
Вид битрейта : Постоянный
Битрейт : 192 Кбит/сек
Каналы : 2 канала
Расположение каналов : Front: L R
Частота : 48,0 КГц
Битовая глубина : 16 бит
Метод сжатия : С потерями
Размер потока : 169 Мбайт (11%)
Выравнивание : Разделение по промежуткам
Продолжительность промежутка : 40 мс. (1,00 видеокадр)
Время предзагрузки промежутка : 500 мс.
[teatrix.ru].t5778.torrent 
Торрент: Зарегистрирован [ 2015-10-10 00:35 ] · B996570C6961640CC2429F023A5C791747D4C122

Скачать .torrent

Скачать

15 KB

Статус: проверено
Скачан: 0 раз
Размер: 1.46 GB
terms.php



Быстрый ответ

Имя:

      
Для отправки сообщений необходимо включить JavaScript
Показать сообщения:    

Текущее время: 05-Дек 03:25

Часовой пояс: UTC + 3


Вы можете начинать темы
Вы можете отвечать на сообщения
Вы не можете редактировать свои сообщения
Вы не можете удалять свои сообщения
Вы не можете голосовать в опросах
Вы не можете прикреплять файлы к сообщениям
Вы можете скачивать файлы