Исчезновение Элеанор Ригби / The Disappearance of Eleanor Rigby: Them (Нед Бенсон / Ned Benson) [2014, США, драма,мелодрама, HDRip] Dub


 

[Цитировать]

Исчезновение Элеанор Ригби / The Disappearance of Eleanor Rigby: Them
Заключение трилогии : Он, Она, Они, Неда Бенсона, номинант Каннского фестиваля.
Страна: США
Жанр: драма,мелодрама
Год выпуска: 2014
Продолжительность: 02:02:52
Перевод: Профессиональный (дублированный)
Cубтитры: нет
Режиссер: Нед Бенсон / Ned Benson
В ролях: Джеймс МакЭвой, Джессика Честейн, Нина Арианда, Виола Дэвис, Билл Хейдер, Киран Хайндс, Изабель Юппер, Уильям Хёрт, Джесс Вейкслер, Никки М. Джеймс
Описание: Конор и Элеанор живут на Манхэттене. Они женаты уже несколько лет, хотя очень разные. Она учится в университете. Он — владелец небольшого ресторанчика. Ее семья (папа — профессор, мама — скрипачка) в свое время не очень благосклонно отнеслась к выбору дочери. Его отца вообще мало интересуют дела сына. Но для Конора и Элеанор все это не имеет никакого значения, потому что они создали свой собственный мир, наполненный любовью. Жизнь для них словно легкая, интересная и красивая игра. Но драматические события меняют всё, их идеальный мир рушится, и Элеанор решает исчезнуть…
Доп. информация:http://www.imdb.com/title/tt3729920/?ref_=fn_al_tt_1
http://www.kinopoisk.ru/film/841431/
Сэмпл: http://rusfolder.com/43828087
Качество видео: HDRip
Формат видео: AVI
Видео: XviD, 1535 Кбит/с, 23.976 fps,720x304
Аудио: AC3 , 2 ch, 160 Кбит/с

MediaInfo

General
Complete name : E:\Disappearance of Eleanor Rigby Him .2014.D.HDRip.avi
Format : AVI
Format/Info : Audio Video Interleave
File size : 1.46 GiB
Duration : 2h 2mn
Overall bit rate : 1 705 Kbps
Writing application : VirtualDubMod 1.5.10.2 (build 2540/release)
Writing library : VirtualDubMod build 2540/release
Video
ID : 0
Format : MPEG-4 Visual
Format profile : Advanced Simple@L5
Format settings, BVOP : 2
Format settings, QPel : No
Format settings, GMC : No warppoints
Format settings, Matrix : Default (MPEG)
Codec ID : XVID
Codec ID/Hint : XviD
Duration : 2h 2mn
Bit rate : 1 536 Kbps
Width : 720 pixels
Height : 304 pixels
Display aspect ratio : 2.35:1
Frame rate : 23.976 fps
Color space : YUV
Chroma subsampling : 4:2:0
Bit depth : 8 bits
Scan type : Progressive
Compression mode : Lossy
Bits/(Pixel*Frame) : 0.293
Stream size : 1.32 GiB (90%)
Writing library : XviD 1.2.1 (UTC 2008-12-04)
Audio
ID : 1
Format : AC-3
Format/Info : Audio Coding 3
Mode extension : CM (complete main)
Format settings, Endianness : Big
Codec ID : 2000
Duration : 2h 2mn
Bit rate mode : Constant
Bit rate : 160 Kbps
Channel(s) : 2 channels
Channel positions : Front: L R
Sampling rate : 48.0 KHz
Compression mode : Lossy
Stream size : 141 MiB (9%)
Alignment : Split accross interleaves
Interleave, duration : 42 ms (1.00 video frame)
Interleave, preload duration : 500 ms

Скриншот c названием фильма

Скриншоты








Показать сообщения:    

Текущее время: 10-Дек 08:04

Часовой пояс: UTC + 3


Вы не можете начинать темы
Вы не можете отвечать на сообщения
Вы не можете редактировать свои сообщения
Вы не можете удалять свои сообщения
Вы не можете голосовать в опросах
Вы не можете прикреплять файлы к сообщениям
Вы не можете скачивать файлы