Сталкер (Андрей Тарковский) [1979 г., СССР, фантастика, драма, детектив, приключения, BDRip] Original Rus


 

[Цитировать]

-Сталкер Страна: СССР
Студия: Киностудия ''Мосфильм''
Жанр: фантастика, драма, детектив, приключения
Год выпуска: 1979
Продолжительность: 02:41:44-Оригинальная аудиодорожка: русская
Cубтитры: нет
Режиссер: Андрей Тарковский
В ролях: Александр Кайдановский, Анатолий Солоницын, Алиса Фрейндлих, Николай Гринько, Наташа Абрамова, Файме Юрно, Е. Костин, Раймо Ренди, Сергей Яковлев, Владимир Заманский
Описание: В этой ленте, снятой по мотивам повести братьев Стругацких «Пикник на обочине», действие происходит в некой запретной Зоне, где, по слухам, существует комната, где исполняются самые заветные желания.
К этой комнате отправляются модный Писатель и авторитетный Профессор — каждый по своим причинам, о которых предпочитают не говорить. А ведет их туда Сталкер — проводник по Зоне — то ли юродивый, то ли апостол новой веры…-
Сэмпл: скачать-Релиз от -
Автор рипа: Elheym
Качество: BDRip (источник: / Blu-ray JPN Transfer Disc [STALKER_BD_JPN] / 1080p)
Контейнер: AVI
Видео: 704x528 (1.33:1), 23.976 fps, XviD build 65 ~1734 kbps avg, 0.19 bit/pixel
Аудио: Русский: AC3, 2.0, 48 kHz, ~192 Кбит/с | Оригинал |
Субтитры: нет
Размер: 2236.15 Mb (1/2 DVD)

MediaInfo

Полное имя : Stalker.1979.RUS.BDRip.XviD.AC3.-HQCLUB.avi
Формат : AVI
Формат/Информация : Audio Video Interleave
Профиль формата : OpenDML
Размер файла : 2,18 Гбайт
Продолжительность : 2 ч. 41 м.
Общий поток : 1933 Кбит/сек
Название фильма : Сталкер (1979) BDRip
Режиссёр : HQCLUB
Программа кодирования : VirtualDubMod 1.5.10.2 (build 2540/release)
Авторское право : Elheym
Примечание : 14.06.2015
Видео
Идентификатор : 0
Формат : MPEG-4 Visual
Профиль формата : Advanced Simple@L5
Параметр BVOP формата : 1
Параметр QPel формата : Нет
Параметр GMC формата : Без точки перехода
Параметр матрицы формата : Выборочная
Идентификатор кодека : XVID
Идентификатор кодека/Подсказка : XviD
Продолжительность : 2 ч. 41 м.
Битрейт : 1729 Кбит/сек
Ширина : 704 пикселя
Высота : 528 пикселей
Соотношение сторон : 4:3
Частота кадров : 23,976 кадра/сек
Цветовое пространство : YUV
Субдискретизация насыщенности : 4:2:0
Битовая глубина : 8 бит
Тип развёртки : Прогрессивная
Метод сжатия : С потерями
Бит/(Пиксели*Кадры) : 0.194
Размер потока : 1,95 Гбайт (89%)
Библиотека кодирования : XviD 65
Аудио
Идентификатор : 1
Формат : AC-3
Формат/Информация : Audio Coding 3
Расширение режима : CM (complete main)
Параметр Endianness формата : Big
Идентификатор кодека : 2000
Продолжительность : 2 ч. 41 м.
Вид битрейта : Постоянный
Битрейт : 192 Кбит/сек
Каналы : 2 канала
Расположение каналов : Front: L R
Частота : 48,0 КГц
Метод сжатия : С потерями
Размер потока : 222 Мбайт (10%)
Выравнивание : Разделение по промежуткам
Продолжительность промежутка : 42 мс. (1,00 видеокадр)
Время предзагрузки промежутка : 500 мс.

Скриншоты




Показать сообщения:    

Текущее время: 08-Дек 11:00

Часовой пояс: UTC + 3


Вы не можете начинать темы
Вы не можете отвечать на сообщения
Вы не можете редактировать свои сообщения
Вы не можете удалять свои сообщения
Вы не можете голосовать в опросах
Вы не можете прикреплять файлы к сообщениям
Вы не можете скачивать файлы