Распад / La desintegration (Филипп Фукон / Philippe Faucon) [2011, Франция, Бельгия, драма, DVB] Original Fre + Sub (Rus, Eng, Fre)


Статистика раздачи [Обновить пиров]
Размер:  1.88 GB   |    Зарегистрирован:  1 год 1 месяц   |    Скачан:  0 раз

Полного источника не было: Никогда

 
   
 
 
 

[Цитировать]

Распад
La désintégration- Страна: Франция, Бельгия
Жанр: драма
Год выпуска: 2011
Продолжительность: 01:17:24Перевод: Субтитры (русский перевод М.Кузиной, Éclair Group)
Cубтитры: русские, английские, французские, немецкие, нидерландские, румынские
Оригинальная аудиодорожка: французский
Режиссер: Филипп Фукон / Philippe Faucon
В ролях: Рашид Деббуз / Rashid Debbouze (Ali), Яссин Аззуз / Yassine Azzouz (Djamel), Иманол Персе / Ymanol Perset (Hamza), Мохамед Нашит / Mohamed Nachit (Nasser), Эмили Вьест / Emilie Wiest (Louise)
Описание: Действие разворачивается в сегодняшнем Лилле. Джамель умело манипулирует тремя более молодыми приятелями, настраивая их против общества, в котором они родились и живут…
Доп. информация: Hot Bird (13.0°E) TV5MONDE Europe DVB-S. Во время нефранцузской речи на экране дополнительно вшитые французские субтитры.
Награды: номинация на лучший полнометражный фильм внеконкурсного показа Venice Film Festival 2011; номинация на приз Луи Деллюка 2012; номинация на 1-е место Cinémed - Festival Méditerranéen de Montpellier 2011.

Качество видео: DVB
Формат видео: DVD Video
Видео: MPEG Video 2, 720x576@1024x576 (16:9), 25 fps, ~3200 kbps avg, 0.309 bit/pixel
Аудио: MPEG Audio 2, 2 ch, 48 kHz, ~192.00 kbps avg - французский
Формат субтитров: prerendered (IDX+SUB)

DVDInfo, MediaInfo

Title: [apreder]La_desintegration(2011)DVBSize: 1.88 Gb ( 1 967 346,00 KBytes ) - DVD-5Enabled regions: 1, 2, 3, 4, 5, 6, 7, 8
VTS_01 : Play Length: 01:17:24 Video: PAL 16:9 (720x576) VBR, Auto Letterboxed Audio: Francais (MPEG1, 2 ch) Subtitles: Russian English Francais Deutsch Nederlands Romanian
ОбщееПолное имя : F:\My Torrents 3\[apreder]La_desintegration(2011)DVB\VIDEO_TS\VTS_01_2.VOBФормат : MPEG-PSРазмер файла : 897 МбайтПродолжительность : 36 м.Режим общего битрейта : ПеременныйОбщий поток : 3461 Кбит/сек
ВидеоИдентификатор : 224 (0xE0)Формат : MPEG VideoВерсия формата : Version 2Профиль формата : Main@MainПараметр BVOP формата : ДаПараметр матрицы формата : ВыборочнаяПараметр GOP формата : M=4, N=12Format_Settings_PictureStructure : FrameПродолжительность : 36 м.Вид битрейта : ПеременныйБитрейт : 3200 Кбит/секШирина : 720 пикселейВысота : 576 пикселейСоотношение сторон : 16:9Частота кадров : 25,000 кадров/секСтандарт вещания : PALЦветовое пространство : YUVСубдискретизация насыщенности : 4:2:0Битовая глубина : 8 битТип развёртки : ЧересстрочнаяПорядок развёртки : Верхнее поле первоеМетод сжатия : С потерямиБит/(Пиксели*Кадры) : 0.309Временной код первого кадра : 00:41:10:23Оригинал временного кода : Group of pictures headerРазмер потока : 829 Мбайт (92%)
АудиоИдентификатор : 192 (0xC0)Формат : MPEG AudioВерсия формата : Version 1Профиль формата : Layer 2Режим : Joint stereoРасширение режима : Intensity Stereo + MS StereoПродолжительность : 36 м.Вид битрейта : ПостоянныйБитрейт : 192 Кбит/секКаналы : 2 каналаЧастота : 48,0 КГцМетод сжатия : С потерямиЗадержка видео : -744 мс.Размер потока : 49,8 Мбайт (6%)
Текст #1Идентификатор : 189 (0xBD)-32 (0x20)Формат : RLEФормат/Информация : Run-length encodingРежим смешивания : DVD-Video
Текст #2Идентификатор : 189 (0xBD)-33 (0x21)Формат : RLEФормат/Информация : Run-length encodingРежим смешивания : DVD-Video
Текст #3Идентификатор : 189 (0xBD)-34 (0x22)Формат : RLEФормат/Информация : Run-length encodingРежим смешивания : DVD-Video
Текст #4Идентификатор : 189 (0xBD)-35 (0x23)Формат : RLEФормат/Информация : Run-length encodingРежим смешивания : DVD-Video
Текст #5Идентификатор : 189 (0xBD)-36 (0x24)Формат : RLEФормат/Информация : Run-length encodingРежим смешивания : DVD-Video

Скриншот c названием фильма

Скриншоты


Резервные скриншоты


-[2'332]
[teatrix.ru].t5786.torrent 
Торрент: Зарегистрирован [ 2015-10-10 00:35 ] · 4DBECA99776460CED321F4042E853776D9850B6A

Скачать .torrent

Скачать

20 KB

Статус: проверено
Скачан: 0 раз
Размер: 1.88 GB
terms.php



Быстрый ответ

Имя:

      
Для отправки сообщений необходимо включить JavaScript
Показать сообщения:    

Текущее время: 07-Дек 23:20

Часовой пояс: UTC + 3


Вы можете начинать темы
Вы можете отвечать на сообщения
Вы не можете редактировать свои сообщения
Вы не можете удалять свои сообщения
Вы не можете голосовать в опросах
Вы не можете прикреплять файлы к сообщениям
Вы можете скачивать файлы