Антихрист / Antichrist (Ларс фон Триер / Lars von Trier) [2009, Дания, Германия, Франция, Швеция, Италия, Польша, триллер, драма, BDRip] DVO (CP Digital) + Sub Rus + Original Eng


 

[Цитировать]

Антихрист / Antichrist
Страна: Дания, Германия, Франция, Швеция, Италия, Польша
Жанр: триллер, драма
Год выпуска: 2009
Продолжительность: 01:48:50
Перевод: Профессиональный (двухголосый закадровый) - CP Digital
Cубтитры: русские
Оригинальная аудиодорожка: английский

Режиссер: Ларс фон Триер / Lars von Trier
В ролях: Уиллем Дефо, Шарлотта Генсбур
Описание: Немолодая пара теряет сына — двухлетний мальчик падает из окна, когда родители занимаются любовью. Чувство вины, буквально, сводит с ума мать ребенка, его отец — психотерапевт, пытается помочь жене и увозит ее в старый дом в лесной чаще. Там герои фильма погружаются в мир странных символов, в их жизнь проникает безумие и насилие. Но даже самые чудовищные страдания мужчины и женщины не в силах притупить их раскаяние и душевную боль.
Качество видео: BDRip - BDRemux 1080p - 2х DVD9
Формат видео: AVI
Видео: 720x304 (2.37:1), 23.976 fps, XviD build 73 ~1459 kbps avg, 0.28 bit/pixel
Аудио: 48 kHz, AC3 Dolby Digital, 3/2 (L,C,R,l,r) + LFE ch, ~448 kbps - двухголосый
Аудио: 48 kHz, AC3 Dolby Digital, 3/2 (L,C,R,l,r) + LFE ch, ~448 kbps - оригинал (отдельным файлом)

MediaInfo

Общее
Полное имя : H:\Antichrist.2009.bdrip_[1.46]_[teko]\Antichrist.2009.bdrip_[1.46].avi
Формат : AVI
Формат/Информация : Audio Video Interleave
Размер файла : 1,46 Гбайт
Продолжительность : 1 ч. 48 м.
Общий поток : 1917 Кбит/сек
Программа кодирования : VirtualDubMod 1.5.10.3 | www.virtualdub-fr.org || (build 2550/release)
Библиотека кодирования : VirtualDubMod build 2550/release
Видео
Идентификатор : 0
Формат : MPEG-4 Visual
Профиль формата : Advanced Simple@L5
Параметр BVOP формата : 1
Параметр QPel формата : Нет
Параметр GMC формата : Без точки перехода
Параметр матрицы формата : Выборочная
Идентификатор кодека : XVID
Идентификатор кодека/Подсказка : XviD
Продолжительность : 1 ч. 48 м.
Битрейт : 1460 Кбит/сек
Ширина : 720 пикселей
Высота : 304 пикселя
Соотношение сторон : 2,35:1
Частота кадров : 23,976 кадра/сек
Цветовое пространство : YUV
Субдискретизация насыщенности : 4:2:0
Битовая глубина : 8 бит
Тип развёртки : Прогрессивная
Метод сжатия : С потерями
Бит/(Пиксели*Кадры) : 0.278
Размер потока : 1,11 Гбайт (76%)
Библиотека кодирования : XviD 73
Аудио
Идентификатор : 1
Формат : AC-3
Формат/Информация : Audio Coding 3
Расширение режима : CM (complete main)
Параметр Endianness формата : Big
Идентификатор кодека : 2000
Продолжительность : 1 ч. 48 м.
Вид битрейта : Постоянный
Битрейт : 448 Кбит/сек
Каналы : 6 каналов
Расположение каналов : Front: L C R, Side: L R, LFE
Частота : 48,0 КГц
Битовая глубина : 16 бит
Метод сжатия : С потерями
Размер потока : 349 Мбайт (23%)
Выравнивание : Разделение по промежуткам
Продолжительность промежутка : 42 мс. (1,00 видеокадр)
Время предзагрузки промежутка : 500 мс.

Скриншоты




Показать сообщения:    

Текущее время: 04-Дек 21:16

Часовой пояс: UTC + 3


Вы не можете начинать темы
Вы не можете отвечать на сообщения
Вы не можете редактировать свои сообщения
Вы не можете удалять свои сообщения
Вы не можете голосовать в опросах
Вы не можете прикреплять файлы к сообщениям
Вы не можете скачивать файлы