Четвертый / Четвертый мужчина / De Vierde Man / The Fourth Man (Пол Верховен / Paul Verhoeven) [1983, Нидерланды, триллер, DVDRip] AVO (Михалёв) + Original Dut


Статистика раздачи [Обновить пиров]
Размер:  1.45 GB   |    Зарегистрирован:  1 год 1 месяц   |    Скачан:  0 раз

Полного источника не было: Никогда

 
   
 
 
 

[Цитировать]

Четвертый / De Vierde Man / The Fourth Man
Страна: Нидерланды
Жанр: триллер
Год выпуска: 1983
Продолжительность: 01:42:28
Перевод: Авторский (одноголосый закадровый) Алексея Михалёва
Cубтитры: нет
Оригинальная аудиодорожка: нидерландский
Режиссер: Пол Верховен / Paul Verhoeven
В ролях: Йерун Краббе /Jeroen Krabbe/, Рене Саутендийк /Renee Soutendijk/, Ханс Веерман /Hans Veerman/, Геерт Де Йонг /Geert De Jong/, Дольф Де Врис /Dolf De Vries/, Том Хоффман /Thom Hoffman/
Рецензия Михаила Иванова: Фильм рассчитан на взыскательную публику, искушенную в сложном психологическом кино. Стилизованная "черная комедия" в духе поп-арта, в которой реальность переплетается с писательским воображением. Главный герой (Краббе), писатель, подверженный алкоголизму и прочим слабостям, приглашен прочитать лекцию в читательский клуб. Здесь он встречает женщину, которая, по его растущему убеждению, хочет его убить. По роману Джерарда Реве.
Доп. информация: мой Михалёв качественнее существующих
рип сделал с лучшего издания, NTSC-диска
Качество видео: DVDRip >>Сэмпл
Формат видео: AVI
Видео: 656x400 (1.64:1), 23.976 fps, XviD build 50 ~1601 kbps avg, 0.25 bit/pixel
Аудио 1: 48 kHz, AC3 Dolby Digital, 2/0 (L,R) ch, ~224 kbps - перевод Михалёва оцифрован и синхронизирован мной с коллекционной кассеты
Аудио 2: 48 kHz, AC3 Dolby Digital, 2/0 (L,R) ch, ~192 kbps - dutch

MediaInfo

Формат : AVI
Формат/Информация : Audio Video Interleave
Размер файла : 1,45 Гбайт
Продолжительность : 1 ч. 42 м.
Общий поток : 2032 Кбит/сек
Название фильма : De Vierde Man (1983)
Программа кодирования : VirtualDubMod 1.5.10.3 | www.virtualdub-fr.org || (build 2550/release)
Библиотека кодирования : VirtualDubMod build 2550/release
Правообладатель : sasikainen
Видео
Идентификатор : 0
Формат : MPEG-4 Visual
Профиль формата : Advanced Simple@L5
Параметр BVOP формата : 2
Параметр QPel формата : Нет
Параметр GMC формата : Без точки перехода
Параметр матрицы формата : Default (MPEG)
Идентификатор кодека : XVID
Идентификатор кодека/Подсказка : XviD
Продолжительность : 1 ч. 42 м.
Битрейт : 1602 Кбит/сек
Ширина : 656 пикселей
Высота : 400 пикселей
Соотношение сторон : 1,640
Частота кадров : 23,976 кадра/сек
Цветовое пространство : YUV
Субдискретизация насыщенности : 4:2:0
Битовая глубина : 8 бит
Тип развёртки : Прогрессивная
Метод сжатия : С потерями
Бит/(Пиксели*Кадры) : 0.255
Размер потока : 1,15 Гбайт (79%)
Библиотека кодирования : XviD 1.2.1 (UTC 2008-12-04)
Аудио #1
Идентификатор : 1
Формат : AC-3
Формат/Информация : Audio Coding 3
Расширение режима : CM (complete main)
Параметр Endianness формата : Big
Идентификатор кодека : 2000
Продолжительность : 1 ч. 42 м.
Вид битрейта : Постоянный
Битрейт : 224 Кбит/сек
Каналы : 2 канала
Расположение каналов : Front: L R
Частота : 48,0 КГц
Битовая глубина : 16 бит
Метод сжатия : С потерями
Размер потока : 164 Мбайт (11%)
Выравнивание : Разделение по промежуткам
Продолжительность промежутка : 42 мс. (1,00 видеокадр)
Время предзагрузки промежутка : 500 мс.
Заголовок : Mihalev
Аудио #2
Идентификатор : 2
Формат : AC-3
Формат/Информация : Audio Coding 3
Расширение режима : CM (complete main)
Параметр Endianness формата : Big
Идентификатор кодека : 2000
Продолжительность : 1 ч. 42 м.
Вид битрейта : Постоянный
Битрейт : 192 Кбит/сек
Каналы : 2 канала
Расположение каналов : Front: L R
Частота : 48,0 КГц
Битовая глубина : 16 бит
Метод сжатия : С потерями
Размер потока : 141 Мбайт (9%)
Выравнивание : Разделение по промежуткам
Продолжительность промежутка : 42 мс. (1,00 видеокадр)
Время предзагрузки промежутка : 500 мс.
Заголовок : dutch

Скриншоты

[teatrix.ru].t5791.torrent 
Торрент: Зарегистрирован [ 2015-10-10 00:35 ] · DF167A92E47983B9C7AA0414B5E0BA88FC75F8E3

Скачать .torrent

Скачать

15 KB

Статус: проверено
Скачан: 0 раз
Размер: 1.45 GB
terms.php



Быстрый ответ

Имя:

      
Для отправки сообщений необходимо включить JavaScript
Показать сообщения:    

Текущее время: 05-Дек 21:37

Часовой пояс: UTC + 3


Вы можете начинать темы
Вы можете отвечать на сообщения
Вы не можете редактировать свои сообщения
Вы не можете удалять свои сообщения
Вы не можете голосовать в опросах
Вы не можете прикреплять файлы к сообщениям
Вы можете скачивать файлы