Необычное путешествие / Vakansi yang janggal dan penyakit lainnya / Peculiar Vacation and Other Illnesses (Йосеп Анджи Ноен / Yosep Anggi Noen) [2012, Индонезия, Нидерланды, драма, роуд-муви, DVB] DVO (Kino Polska)


Статистика раздачи [Обновить пиров]
Размер:  513 MB   |    Зарегистрирован:  1 год 1 месяц   |    Скачан:  0 раз

Полного источника не было: Никогда

 
   
 
 
 

[Цитировать]

Необычное путешествие
Vakansi yang janggal dan penyakit lainnya- Страна: Индонезия, Нидерланды
Жанр: драма, роуд-муви
Год выпуска: 2012
Продолжительность: 01:28:22Перевод: Профессиональный (двухголосый закадровый) по заказу Kino Polska на производственно-технической базе Студии "Акцент"
Cубтитры: нет
Режиссер: Йосеп Анджи Ноен / Yosep Anggi Noen
В ролях: Кристи Маханани / Christy Mahanani (Ning), Джонед Суриатмоко / Joned Suryatmoko (Jarot), Мухаммед Абе Баасин / Muhammad Abe Baasyin (Mur), Сиефризал / Syefrizal (Uda John)
Описание: Нин, работавшая ранее в магазине одежды, устраивается в мебельный магазин и в первый день работы вместе с водителем Муром отправляется с доставкой заказа в отдаленную горную деревушку…
Доп. информация: Filmbox Arthouse IPTV
Награды: номинация на приз "Золотой леопард" в категории "Режиссеры настоящего" Locarno International Film Festival 2012; номинация на премию "Дракон и тигр" Vancouver International Film Festival 2012; номинация на приз "Золотой Хануман" Jogja-NETPAC Asian Film Festival 2012; номинация на премию новым талантам Hong Kong Asian Film Festival 2012.

Качество видео: DVB
Формат видео: MKV
Видео: AVC (H.264), 720x576@1024x576 (16:9), 25 fps, ~668 kbps avg, 0.071 bit/pixel
Аудио: MPEG Audio 2, 2 ch, 48 kHz, ~128.00 kbps avg

MediaInfo

ОбщееУникальный идентификатор : 254367494333087544882362765004269169861 (0xBF5D65BD6A1626B3AF2A6B8239F02CC5)Полное имя : F:\My Torrents 3\[apreder]Vakansi_yang_janggal_dan_penyakit_lainnya(2012)DVB.mkvФормат : MatroskaВерсия формата : Version 2Размер файла : 513 МбайтПродолжительность : 1 ч. 28 м.Общий поток : 812 Кбит/секДата кодирования : UTC 2015-06-12 08:16:15Программа кодирования : mkvmerge v7.9.0 ('Birds') 64bitБиблиотека кодирования : libebml v1.3.1 + libmatroska v1.4.2
ВидеоИдентификатор : 2Формат : AVCФормат/Информация : Advanced Video CodecПрофиль формата : Main@L3Параметр CABAC формата : ДаПараметр ReFrames формата : 3 кадраИдентификатор кодека : V_MPEG4/ISO/AVCПродолжительность : 1 ч. 28 м.Битрейт : 668 Кбит/секШирина : 720 пикселейВысота : 576 пикселейСоотношение сторон : 16:9Режим частоты кадров : ПостоянныйЧастота кадров : 22,727 кадра/секЧастота кадров в оригинале : 25,000 кадров/секСтандарт вещания : ComponentЦветовое пространство : YUVСубдискретизация насыщенности : 4:2:0Битовая глубина : 8 битТип развёртки : ЧересстрочнаяПорядок развёртки : Верхнее поле первоеБит/(Пиксели*Кадры) : 0.071Размер потока : 422 Мбайт (82%)Язык : RussianDefault : ДаForced : Нетcolour_range : LimitedОсновные цвета : BT.601 PALХарактеристики трансфера : BT.470 System B, BT.470 System GКоэффициенты матрицы : BT.601
АудиоИдентификатор : 1Формат : MPEG AudioВерсия формата : Version 1Профиль формата : Layer 2Идентификатор кодека : A_MPEG/L2Идентификатор кодека/Подсказка : MP2Продолжительность : 1 ч. 28 м.Вид битрейта : ПостоянныйБитрейт : 128 Кбит/секКаналы : 2 каналаЧастота : 48,0 КГцМетод сжатия : С потерямиЗадержка видео : -12 мс.Размер потока : 80,9 Мбайт (16%)Язык : RussianDefault : ДаForced : Нет

Скриншот c названием фильма

Скриншоты


Резервные скриншоты


-[2'318]
[teatrix.ru].t5793.torrent 
Торрент: Зарегистрирован [ 2015-10-10 00:35 ] · DEF29512E2720378DD3380DBECA131C66D4E0F75

Скачать .torrent

Скачать

11 KB

Статус: проверено
Скачан: 0 раз
Размер: 513 MB
terms.php



Быстрый ответ

Имя:

      
Для отправки сообщений необходимо включить JavaScript
Показать сообщения:    

Текущее время: 02-Дек 21:12

Часовой пояс: UTC + 3


Вы можете начинать темы
Вы можете отвечать на сообщения
Вы не можете редактировать свои сообщения
Вы не можете удалять свои сообщения
Вы не можете голосовать в опросах
Вы не можете прикреплять файлы к сообщениям
Вы можете скачивать файлы