Мсье Ир / Monsieur Hire (Патрис Леконт / Patrice Leconte) [1989, Франция, триллер, драма, криминал, DVDRip] MVO


Статистика раздачи [Обновить пиров]
Размер:  742 MB   |    Зарегистрирован:  1 год 2 месяца   |    Скачан:  0 раз

Полного источника не было: Никогда

 
   
 
 
 

[Цитировать]

Мсье Ир / Monsieur Hire
Страна: Франция
Жанр: триллер, драма, криминал
Год выпуска: 1989
Продолжительность: 01:15:46
Перевод: Профессиональный (многоголосый закадровый)
Cубтитры: нет

Режиссер: Патрис Леконт / Patrice Leconte
В ролях: Мишель Блан, Сандрин Боннэр, Люк Тюйе, Андре Вильм, Эрик Беренжер, Мариэль Бертон, Филипп Дормуа, Мари Гайдю, Мишель Морано, Нора Ноэль
Описание: Тихий одинокий холостяк месье Ир, которого подозревают в убийстве девушки, любит тайно наблюдать через окно за своей молодой соседкой Алисой, живущей в доме напротив. Однажды, заметив его при вспышке молнии во время грозы, Алиса приходит к нему домой, чтобы узнать, почему он за ней шпионит…
Качество видео: DVDRip
Формат видео: AVI
Видео: 688x304 (2.26:1), 25 fps, XviD build 73 ~1167 kbps avg, 0.22 bit/pixel
Аудио: 48 kHz, AC3 Dolby Digital, 2/0 (L,R) ch, ~192 kbps

MediaInfo

Общее
Полное имя : H:\Monsieur.Hire.1989.dvdrip_[745]_[teko].avi
Формат : AVI
Формат/Информация : Audio Video Interleave
Размер файла : 742 Мбайт
Продолжительность : 1 ч. 15 м.
Общий поток : 1370 Кбит/сек
Программа кодирования : VirtualDubMod 1.5.10.3 | www.virtualdub-fr.org || (build 2550/release)
Библиотека кодирования : VirtualDubMod build 2550/release
Видео
Идентификатор : 0
Формат : MPEG-4 Visual
Профиль формата : Advanced Simple@L5
Параметр BVOP формата : 2
Параметр QPel формата : Нет
Параметр GMC формата : Без точки перехода
Параметр матрицы формата : Выборочная
Идентификатор кодека : XVID
Идентификатор кодека/Подсказка : XviD
Продолжительность : 1 ч. 15 м.
Битрейт : 1168 Кбит/сек
Ширина : 688 пикселей
Высота : 304 пикселя
Соотношение сторон : 2,25:1
Частота кадров : 25,000 кадров/сек
Цветовое пространство : YUV
Субдискретизация насыщенности : 4:2:0
Битовая глубина : 8 бит
Тип развёртки : Прогрессивная
Метод сжатия : С потерями
Бит/(Пиксели*Кадры) : 0.223
Размер потока : 633 Мбайт (85%)
Библиотека кодирования : XviD 73
Аудио
Идентификатор : 1
Формат : AC-3
Формат/Информация : Audio Coding 3
Расширение режима : CM (complete main)
Параметр Endianness формата : Big
Идентификатор кодека : 2000
Продолжительность : 1 ч. 15 м.
Вид битрейта : Постоянный
Битрейт : 192 Кбит/сек
Каналы : 2 канала
Расположение каналов : Front: L R
Частота : 48,0 КГц
Битовая глубина : 16 бит
Метод сжатия : С потерями
Размер потока : 104 Мбайт (14%)
Выравнивание : Разделение по промежуткам
Продолжительность промежутка : 40 мс. (1,00 видеокадр)
Время предзагрузки промежутка : 500 мс.
[teatrix.ru].t5794.torrent 
Торрент: Зарегистрирован [ 2015-10-10 00:35 ] · AE8CBE0BAAA14EB49E06AEB25DA69A1EA7F99592

Скачать .torrent

Скачать

15 KB

Статус: проверено
Скачан: 0 раз
Размер: 742 MB
terms.php



Быстрый ответ

Имя:

      
Для отправки сообщений необходимо включить JavaScript
Показать сообщения:    

Текущее время: 10-Дек 23:33

Часовой пояс: UTC + 3


Вы можете начинать темы
Вы можете отвечать на сообщения
Вы не можете редактировать свои сообщения
Вы не можете удалять свои сообщения
Вы не можете голосовать в опросах
Вы не можете прикреплять файлы к сообщениям
Вы можете скачивать файлы