Куда покойники уходят умирать / Where the Dead Go to Die (Джимми Кример / Jimmy ScreamerClauz) [2012, США, Анимация, Ужасы, DVDRip] AVO + Original Eng


 

[Цитировать]

Куда покойники уходят умирать / Where the Dead Go to Die
Страна: США
Жанр: Анимация, Ужасы
Год выпуска: 2012
Продолжительность: 1:35:06
Перевод: Авторский (одноголосый закадровый)
Cубтитры: нет
Оригинальная аудиодорожка: английский
Режиссер: Джимми Кример
В ролях: Руби ЛаРокка
Брэндон Слэгли
Joey Smack
Джимми Кример
Victor Bonacore
Джошуа Майкл Грин
Линни Куигли
М. Дот Стрэйндж
Трент Хаага
Деванни Пинн
Описание: Группу подростков из неблагополучных семей, проживающих в одном квартале, преследует говорящая собака по кличке Лабби. «Добрая псина» и ее гипноз становятся причиной сюрреалистических путешествий по аду…
Доп. информация: Временная инфа
Помогите определить голос - не могу понять, сколько не слушал сэмплы
Сэмпл: http://multi-up.com/1053009
Качество видео: DVDRip
Формат видео: AVI
Видео: XVID 720x400 16:9 29.970 fps 1559 Kbps
Аудио: AC-3 48.0 KHz 448 Kbps
Аудио 2: AC-3 48.0 KHz 192 Kbps

MediaInfo

Format : AVI
Format/Info : Audio Video Interleave
File size : 1.47 GiB
Duration : 1h 35mn
Overall bit rate : 2 217 Kbps
Writing application : VirtualDubMod 1.5.10.3 | www.virtualdub-fr.org || (build 2550/release)
Writing library : VirtualDubMod build 2550/release
Video #0
ID : 0
Format : MPEG-4 Visual
Format profile : Advanced Simple@L5
Format settings, BVOP : 1
Format settings, QPel : No
Format settings, GMC : No warppoints
Format settings, Matrix : Default (H.263)
Codec ID : XVID
Codec ID/Hint : XviD
Duration : 1h 35mn
Bit rate : 1 559 Kbps
Width : 720 pixels
Height : 400 pixels
Display aspect ratio : 16:9
Frame rate : 29.970 fps
Color space : YUV
Chroma subsampling : 4:2:0
Bit depth : 8 bits
Scan type : Progressive
Compression mode : Lossy
Bits/(Pixel*Frame) : 0.181
Stream size : 1.04 GiB (70%)
Writing library : XviD 64
Audio #1
ID : 1
Format : AC-3
Format/Info : Audio Coding 3
Mode extension : CM (complete main)
Format settings, Endianness : Big
Codec ID : 2000
Duration : 1h 35mn
Bit rate mode : Constant
Bit rate : 448 Kbps
Channel(s) : 6 channels
Channel positions : Front: L C R, Side: L R, LFE
Sampling rate : 48.0 KHz
Bit depth : 16 bits
Compression mode : Lossy
Stream size : 305 MiB (20%)
Alignment : Split accross interleaves
Interleave, duration : 33 ms (1.00 video frame)
Interleave, preload duration : 500 ms
Audio #2
ID : 2
Format : AC-3
Format/Info : Audio Coding 3
Mode extension : CM (complete main)
Format settings, Endianness : Big
Codec ID : 2000
Duration : 1h 35mn
Bit rate mode : Constant
Bit rate : 192 Kbps
Channel(s) : 2 channels
Channel positions : Front: L R
Sampling rate : 48.0 KHz
Bit depth : 16 bits
Compression mode : Lossy
Stream size : 131 MiB (9%)
Alignment : Split accross interleaves
Interleave, duration : 33 ms (1.00 video frame)
Interleave, preload duration : 500 ms

Скриншот c названием фильма

Скриншоты




Показать сообщения:    

Текущее время: 03-Дек 14:38

Часовой пояс: UTC + 3


Вы не можете начинать темы
Вы не можете отвечать на сообщения
Вы не можете редактировать свои сообщения
Вы не можете удалять свои сообщения
Вы не можете голосовать в опросах
Вы не можете прикреплять файлы к сообщениям
Вы не можете скачивать файлы