Ад / L'enfer (Клод Шаброль / Claude Chabrol) [1994, Франция, драма, DVDRip] MVO


Статистика раздачи [Обновить пиров]
Размер:  744 MB   |    Зарегистрирован:  1 год 1 месяц   |    Скачан:  0 раз

Полного источника не было: Никогда

 
   
 
 
 

[Цитировать]

Ад / L'enfer
Страна: Франция
Жанр: драма
Год выпуска: 1994
Продолжительность: 01:37:59
Перевод: Профессиональный (многоголосый закадровый)
Cубтитры: нет

Режиссер: Клод Шаброль / Claude Chabrol
В ролях: Эммануэль Беар, Франсуа Клюзе, Натали Кардон, Андре Уилмс, Марк Лавуан, Кристиан Минаццоли, Дора Долл, Марио Давид, Жан-Пьер Кассель, Тома Шаброль
Описание: От любви до ненависти один шаг... А сколько шагов от любви до безумства? Владелец респектабельной гостиницы Поль уже семь лет живет в браке с красавицей Нелли. Но семейная идиллия начинает стремительно рушиться после безосновательного (или почти безосновательного) подозрения Нелли в неверности. С того момента жизнь Поля превращается в ад. И он прилагает нечеловеческие усилия, чтобы превратить в ад жизнь всех окружающих. А время бежит все быстрее и быстрее, события становятся все драматичнее и драматичнее...
Картина поставлена Клодом Шабролем по оригинальному сценарию Анри-Жоржа Клузо.

Качество видео: DVDRip
Формат видео: AVI
Видео: 608x368 (1.65:1), 25 fps, XviD build 73 ~923 kbps avg, 0.17 bit/pixel
Аудио: 48 kHz, MPEG Layer 3, 2 ch, ~128.00 kbps avg

MediaInfo

Общее
Полное имя : H:\L'enfer.1993.dvdrip_[745]_[teko].avi
Формат : AVI
Формат/Информация : Audio Video Interleave
Размер файла : 744 Мбайт
Продолжительность : 1 ч. 37 м.
Общий поток : 1061 Кбит/сек
Программа кодирования : VirtualDubMod 1.5.10.3 | www.virtualdub-fr.org || (build 2550/release)
Библиотека кодирования : VirtualDubMod build 2550/release
Видео
Идентификатор : 0
Формат : MPEG-4 Visual
Профиль формата : Advanced Simple@L5
Параметр BVOP формата : 2
Параметр QPel формата : Нет
Параметр GMC формата : Без точки перехода
Параметр матрицы формата : Выборочная
Идентификатор кодека : XVID
Идентификатор кодека/Подсказка : XviD
Продолжительность : 1 ч. 37 м.
Битрейт : 924 Кбит/сек
Ширина : 608 пикселей
Высота : 368 пикселей
Соотношение сторон : 1,652
Частота кадров : 25,000 кадров/сек
Цветовое пространство : YUV
Субдискретизация насыщенности : 4:2:0
Битовая глубина : 8 бит
Тип развёртки : Прогрессивная
Метод сжатия : С потерями
Бит/(Пиксели*Кадры) : 0.165
Размер потока : 647 Мбайт (87%)
Библиотека кодирования : XviD 73
Аудио
Идентификатор : 1
Формат : MPEG Audio
Версия формата : Version 1
Профиль формата : Layer 3
Идентификатор кодека : 55
Идентификатор кодека/Подсказка : MP3
Продолжительность : 1 ч. 37 м.
Вид битрейта : Постоянный
Битрейт : 128 Кбит/сек
Каналы : 2 канала
Частота : 48,0 КГц
Метод сжатия : С потерями
Размер потока : 89,7 Мбайт (12%)
Выравнивание : Соединение по промежуткам
Продолжительность промежутка : 40 мс. (1,00 видеокадр)
Время предзагрузки промежутка : 504 мс.
Библиотека кодирования : LAME3.98r
Настройки программы : -m s -V 4 -q 2 -lowpass 17 -b 128
[teatrix.ru].t5796.torrent 
Торрент: Зарегистрирован [ 2015-10-10 00:35 ] · BD138A71D0E255C4C0581B1F143B36DA40C5B992

Скачать .torrent

Скачать

15 KB

Статус: проверено
Скачан: 0 раз
Размер: 744 MB
terms.php



Быстрый ответ

Имя:

      
Для отправки сообщений необходимо включить JavaScript
Показать сообщения:    

Текущее время: 09-Дек 10:51

Часовой пояс: UTC + 3


Вы можете начинать темы
Вы можете отвечать на сообщения
Вы не можете редактировать свои сообщения
Вы не можете удалять свои сообщения
Вы не можете голосовать в опросах
Вы не можете прикреплять файлы к сообщениям
Вы можете скачивать файлы