Ад / L'enfer (Клод Шаброль / Claude Chabrol) [1994, Франция, драма, DVDRip] MVO


Статистика раздачи [Обновить пиров]
Размер:  1.46 GB   |    Зарегистрирован:  1 год 2 месяца   |    Скачан:  0 раз

Полного источника не было: Никогда

 
   
 
 
 

[Цитировать]

Ад / L'enfer
Страна: Франция
Жанр: драма
Год выпуска: 1994
Продолжительность: 01:37:59
Перевод: Профессиональный (многоголосый закадровый)
Cубтитры: нет

Режиссер: Клод Шаброль / Claude Chabrol
В ролях: Эммануэль Беар, Франсуа Клюзе, Натали Кардон, Андре Уилмс, Марк Лавуан, Кристиан Минаццоли, Дора Долл, Марио Давид, Жан-Пьер Кассель, Тома Шаброль
Описание: От любви до ненависти один шаг... А сколько шагов от любви до безумства? Владелец респектабельной гостиницы Поль уже семь лет живет в браке с красавицей Нелли. Но семейная идиллия начинает стремительно рушиться после безосновательного (или почти безосновательного) подозрения Нелли в неверности. С того момента жизнь Поля превращается в ад. И он прилагает нечеловеческие усилия, чтобы превратить в ад жизнь всех окружающих. А время бежит все быстрее и быстрее, события становятся все драматичнее и драматичнее...
Картина поставлена Клодом Шабролем по оригинальному сценарию Анри-Жоржа Клузо.

Качество видео: DVDRip
Формат видео: AVI
Видео: 656x400 (1.64:1), 25 fps, XviD build 73 ~1924 kbps avg, 0.29 bit/pixel
Аудио: 48 kHz, AC3 Dolby Digital, 2/0 (L,R) ch, ~192 kbps

MediaInfo

Общее
Полное имя : H:\L'enfer.1993.dvdrip_[1.46]_[teko].avi
Формат : AVI
Формат/Информация : Audio Video Interleave
Размер файла : 1,46 Гбайт
Продолжительность : 1 ч. 37 м.
Общий поток : 2126 Кбит/сек
Программа кодирования : VirtualDubMod 1.5.10.3 | www.virtualdub-fr.org || (build 2550/release)
Библиотека кодирования : VirtualDubMod build 2550/release
Видео
Идентификатор : 0
Формат : MPEG-4 Visual
Профиль формата : Advanced Simple@L5
Параметр BVOP формата : 1
Параметр QPel формата : Нет
Параметр GMC формата : Без точки перехода
Параметр матрицы формата : Выборочная
Идентификатор кодека : XVID
Идентификатор кодека/Подсказка : XviD
Продолжительность : 1 ч. 37 м.
Битрейт : 1925 Кбит/сек
Ширина : 656 пикселей
Высота : 400 пикселей
Соотношение сторон : 16:10
Частота кадров : 25,000 кадров/сек
Цветовое пространство : YUV
Субдискретизация насыщенности : 4:2:0
Битовая глубина : 8 бит
Тип развёртки : Прогрессивная
Метод сжатия : С потерями
Бит/(Пиксели*Кадры) : 0.293
Размер потока : 1,32 Гбайт (91%)
Библиотека кодирования : XviD 73
Аудио
Идентификатор : 1
Формат : AC-3
Формат/Информация : Audio Coding 3
Расширение режима : CM (complete main)
Параметр Endianness формата : Big
Идентификатор кодека : 2000
Продолжительность : 1 ч. 37 м.
Вид битрейта : Постоянный
Битрейт : 192 Кбит/сек
Каналы : 2 канала
Расположение каналов : Front: L R
Частота : 48,0 КГц
Битовая глубина : 16 бит
Метод сжатия : С потерями
Размер потока : 135 Мбайт (9%)
Выравнивание : Разделение по промежуткам
Продолжительность промежутка : 40 мс. (1,00 видеокадр)
Время предзагрузки промежутка : 500 мс.
[teatrix.ru].t5797.torrent 
Торрент: Зарегистрирован [ 2015-10-10 00:35 ] · DE6A425CC4505652B2EEE8D3941EE9666C9BBE62

Скачать .torrent

Скачать

15 KB

Статус: проверено
Скачан: 0 раз
Размер: 1.46 GB
terms.php



Быстрый ответ

Имя:

      
Для отправки сообщений необходимо включить JavaScript
Показать сообщения:    

Текущее время: 10-Дек 17:44

Часовой пояс: UTC + 3


Вы можете начинать темы
Вы можете отвечать на сообщения
Вы не можете редактировать свои сообщения
Вы не можете удалять свои сообщения
Вы не можете голосовать в опросах
Вы не можете прикреплять файлы к сообщениям
Вы можете скачивать файлы