Последний император / The Last Emperor (Бернардо Бертолуччи / Bernardo Bertolucci) [1987, Китай, Италия, Франция, драма, биография, история, HDRip] [Extended Cut] MVO (Cinema Prestige) + Sub Rus, Eng + Original Eng


 

[Цитировать]

Последний император / The Last Emperor
Расширенная версия / Extended Cut
Страна: Китай, Италия, Великобритания, Франция
Жанр: драма, биография, история
Год выпуска: 1987
Продолжительность: 03:38:34
Перевод: Профессиональный (многоголосый закадровый) - Cinema Prestige
Cубтитры: русские, английские
Оригинальная аудиодорожка: английский

Режиссер: Бернардо Бертолуччи / Bernardo Bertolucci
В ролях: Джон Лоун, Джоан Чен, Питер О'Тул, Ийн Руочен, Ву Джун Мей, Мэгги Хан, Рюичи Сакамото, Рик Янг, Виктор Уонг, Деннис Дан
Описание: Он был повелителем миллиарда человек. Ему было уготовано «десять тысяч лет счастья». Но мир древних традиций рухнул под напором века перемен... В 1908 году трехлетний Пу И, последний из династии, тысячи лет правившей «Поднебесной империей», был возведен на Трон Дракона. К императору-ребенку относятся как к божеству. Он может делать все, кроме одного - покидать пределы своего дворца. В Запретный город не долетают «ветры перемен», сотрясающие мир за его стенами. Но жизнь последнего императора Китая оказывается частью всей великой истории XX века.
Качество видео: HDRip
Формат видео: AVI
Видео: 720x304 (2.37:1), 23.976 fps, XviD build 73 ~1234 kbps avg, 0.23 bit/pixel
Аудио: 48 kHz, AC3 Dolby Digital, 2/0 (L,R) ch, ~192 kbps - многоголосый
Аудио: 48 kHz, AC3 Dolby Digital, 2/0 (L,R) ch, ~192 kbps - оригинал (отдельным файлом)

MediaInfo

Общее
Полное имя : H:\The.Last.Emperor.1987.hdrip_[2.18]_[teko]_unrated\The.Last.Emperor.1987.hdrip_[2.18].avi
Формат : AVI
Формат/Информация : Audio Video Interleave
Профиль формата : OpenDML
Размер файла : 2,19 Гбайт
Продолжительность : 3 ч. 38 м.
Общий поток : 1433 Кбит/сек
Программа кодирования : VirtualDubMod 1.5.10.3 | www.virtualdub-fr.org || (build 2550/release)
Библиотека кодирования : VirtualDubMod build 2550/release
Видео
Идентификатор : 0
Формат : MPEG-4 Visual
Профиль формата : Advanced Simple@L5
Параметр BVOP формата : 1
Параметр QPel формата : Нет
Параметр GMC формата : Без точки перехода
Параметр матрицы формата : Выборочная
Идентификатор кодека : XVID
Идентификатор кодека/Подсказка : XviD
Продолжительность : 3 ч. 38 м.
Битрейт : 1229 Кбит/сек
Ширина : 720 пикселей
Высота : 304 пикселя
Соотношение сторон : 2,35:1
Частота кадров : 23,976 кадра/сек
Цветовое пространство : YUV
Субдискретизация насыщенности : 4:2:0
Битовая глубина : 8 бит
Тип развёртки : Прогрессивная
Метод сжатия : С потерями
Бит/(Пиксели*Кадры) : 0.234
Размер потока : 1,88 Гбайт (86%)
Библиотека кодирования : XviD 73
Аудио
Идентификатор : 1
Формат : AC-3
Формат/Информация : Audio Coding 3
Расширение режима : CM (complete main)
Параметр Endianness формата : Big
Идентификатор кодека : 2000
Продолжительность : 3 ч. 38 м.
Вид битрейта : Постоянный
Битрейт : 192 Кбит/сек
Каналы : 2 канала
Расположение каналов : Front: L R
Частота : 48,0 КГц
Битовая глубина : 16 бит
Метод сжатия : С потерями
Размер потока : 300 Мбайт (13%)
Выравнивание : Разделение по промежуткам
Продолжительность промежутка : 42 мс. (1,00 видеокадр)
Время предзагрузки промежутка : 500 мс.



Показать сообщения:    

Текущее время: 03-Дек 12:39

Часовой пояс: UTC + 3


Вы не можете начинать темы
Вы не можете отвечать на сообщения
Вы не можете редактировать свои сообщения
Вы не можете удалять свои сообщения
Вы не можете голосовать в опросах
Вы не можете прикреплять файлы к сообщениям
Вы не можете скачивать файлы