Анри / Henri (Иоланда Моро / Yolande Moreau) [2013, Франция, Бельгия, драма, DVB] Original (Fre) + Sub (Rus)


Статистика раздачи [Обновить пиров]
Размер:  2.47 GB   |    Зарегистрирован:  1 год 1 месяц   |    Скачан:  0 раз

Полного источника не было: Никогда

 
   
 
 
 

[Цитировать]

Анри
Henri- Страна: Франция, Бельгия
Жанр: драма
Год выпуска: 2013
Продолжительность: 01:42:34Перевод: Субтитры (русский перевод И.Рыбкиной, Éclair Group)
Cубтитры: русские, английские, французские, немецкие, нидерландские
Оригинальная аудиодорожка: французский
Режиссер: Иоланда Моро / Yolande Moreau
В ролях: Пиппо Дельбоно / Pippo Delbono (Henri Salvatore), Мисс Минг / Miss Ming (Rosette), Жаки Берройе / Jackie Berroyer (Bibi), Лио / Lio (Rita), Гвен Берру / Gwen Berrou (Laetitia), Иоланда Моро / Yolande Moreau (Tante Michèle), Паскаль Демолон / Pascal Demolon (Jean-Pierre)
Описание: 50-летний итальянец Анри вместе с женой Ритой держит небольшой ресторанчик "Кантина" возле Шарлеруа. Свободное время он проводит с друзьями за выпивкой. Внезапная смерть Риты оставляет Анри в смятении. Тогда его дочь Летиция предлагает Анри взять себе в помощь кого-нибудь из "Белой бабочки", находящегося рядом дома умственно отсталых, одна из обитателей которого, Розетта, веселая и заботливая, мечтает о любви, сексе и нормальной жизни…
Доп. информация: Hot Bird (13.0°E) TV5MONDE Europe DVB-S
Награды: номинация на премию SACD в секции "Две недели режиссеров" на Cannes Film Festival 2013; приз FIPRESCI за лучший фильм Gijón International Film Festival 2013; номинация Lumiere Awards, France 2014 в категории "Актриса-надежда" (Miss Ming); 4 номинации Les Magritte du cinéma 2015 (лучший фильм, режиссер, сценарий, музыка).

Качество видео: DVB
Формат видео: DVD Video
Видео: MPEG Video 2, 720x576@1024x576 (16:9), 25 fps, ~3186 kbps avg, 0.307 bit/pixel
Аудио: MPEG Audio 2, 2 ch, 48 kHz, ~192.00 kbps avg - французский
Формат субтитров: prerendered (IDX+SUB)

DVDInfo, MediaInfo

Title: [apreder]Henri(2013)DVBSize: 2.47 Gb ( 2 594 228,00 KBytes ) - DVD-5Enabled regions: 1, 2, 3, 4, 5, 6, 7, 8
VTS_01 : Play Length: 01:42:34 Video: PAL 16:9 (720x576) VBR, Auto Letterboxed Audio: Francais (MPEG1, 2 ch) Subtitles: Russian English Francais Deutsch Nederlands
ОбщееПолное имя : F:\My Torrents 3\[apreder]Henri(2013)DVB\VIDEO_TS\VTS_01_3.VOBФормат : MPEG-PSРазмер файла : 485 МбайтПродолжительность : 19 м.Режим общего битрейта : ПеременныйОбщий поток : 3447 Кбит/сек
ВидеоИдентификатор : 224 (0xE0)Формат : MPEG VideoВерсия формата : Version 2Профиль формата : Main@MainПараметр BVOP формата : ДаПараметр матрицы формата : ВыборочнаяПараметр GOP формата : M=4, N=12Format_Settings_PictureStructure : FrameПродолжительность : 19 м.Вид битрейта : ПеременныйБитрейт : 3186 Кбит/секШирина : 720 пикселейВысота : 576 пикселейСоотношение сторон : 16:9Частота кадров : 25,000 кадров/секСтандарт вещания : PALЦветовое пространство : YUVСубдискретизация насыщенности : 4:2:0Битовая глубина : 8 битТип развёртки : ЧересстрочнаяПорядок развёртки : Верхнее поле первоеМетод сжатия : С потерямиБит/(Пиксели*Кадры) : 0.307Временной код первого кадра : 01:22:53:20Оригинал временного кода : Group of pictures headerРазмер потока : 448 Мбайт (92%)
АудиоИдентификатор : 192 (0xC0)Формат : MPEG AudioВерсия формата : Version 1Профиль формата : Layer 2Режим : Joint stereoРасширение режима : Intensity Stereo + MS StereoПродолжительность : 19 м.Вид битрейта : ПостоянныйБитрейт : 192 Кбит/секКаналы : 2 каналаЧастота : 48,0 КГцМетод сжатия : С потерямиЗадержка видео : -664 мс.Размер потока : 27,0 Мбайт (6%)
Текст #1Идентификатор : 189 (0xBD)-32 (0x20)Формат : RLEФормат/Информация : Run-length encodingРежим смешивания : DVD-Video
Текст #2Идентификатор : 189 (0xBD)-34 (0x22)Формат : RLEФормат/Информация : Run-length encodingРежим смешивания : DVD-Video
Текст #3Идентификатор : 189 (0xBD)-35 (0x23)Формат : RLEФормат/Информация : Run-length encodingРежим смешивания : DVD-Video
Текст #4Идентификатор : 189 (0xBD)-36 (0x24)Формат : RLEФормат/Информация : Run-length encodingРежим смешивания : DVD-Video

Скриншот c названием фильма

Скриншоты


Резервные скриншоты


-[2'314]
[teatrix.ru].t5799.torrent 
Торрент: Зарегистрирован [ 2015-10-10 00:35 ] · F2C08DB96C549752AD578A4E82E0547A0AC67A31

Скачать .torrent

Скачать

13 KB

Статус: проверено
Скачан: 0 раз
Размер: 2.47 GB
terms.php



Быстрый ответ

Имя:

      
Для отправки сообщений необходимо включить JavaScript
Показать сообщения:    

Текущее время: 08-Дек 21:10

Часовой пояс: UTC + 3


Вы можете начинать темы
Вы можете отвечать на сообщения
Вы не можете редактировать свои сообщения
Вы не можете удалять свои сообщения
Вы не можете голосовать в опросах
Вы не можете прикреплять файлы к сообщениям
Вы можете скачивать файлы