Любовь и ярость / Любовь и гнев / Amore e rabbia / La contestation / Love and Anger (Карло Лидзани / Carlo Lizzani, Бернардо Бертолуччи / Bernardo Bertolucci) [1969, драма, DVDRip] MVO (СВ-дубль) + AVO (Алексеев)


Статистика раздачи [Обновить пиров]
Размер:  1.46 GB   |    Зарегистрирован:  1 год 1 месяц   |    Скачан:  0 раз

Полного источника не было: Никогда

 
   
 
 
 

[Цитировать]

Любовь и ярость / Любовь и гнев / Amore e rabbia / La contestation / Love and Anger
Страна: Италия, Франция
Жанр: драма
Год выпуска: 1969
Продолжительность: 01:38:12
Перевод: Профессиональный (многоголосый закадровый) СВ-дубль
Перевод: Авторский (одноголосый закадровый) - Антон Алексеев
Cубтитры: нет

Режиссер: Карло Лидзани / Carlo Lizzani, Бернардо Бертолуччи / Bernardo Bertolucci, Пьер-Паоло Пазолини / Pier Paolo Pasolini, Жан-Люк Годар / Jean-Luc Godard, Марко Беллоккьо / Marco Bellocchio
В ролях: Том Бейкер, Джулиан Бек, Джим Андерсон, Юдит Малина, Джулио Чезаре Кастелло, Адриано Апра, Фернандо Ди Джамматтео, Петра Фогт, Ниннетто Даволи, Рошель Барбини, Альдо Пульизи, Кристин Гео, Нино Кастельнуово, Марко Беллоккьо, Романо Коста, Катрин Журдан, Паоло Поцези, Милена Вукотич
Описание: Несколько новелл о любви и насилии властителей дум молодёжи конца шестидесятых.
Качество видео: DVDRip
Формат видео: AVI
Видео: 704x304 (2.32:1), 25 fps, XviD build 73 ~1855 kbps avg, 0.35 bit/pixel
Аудио: 48 kHz, AC3 Dolby Digital, 1/0 (C) ch, ~128 kbps - многоголосый
Аудио: 48 kHz, AC3 Dolby Digital, 1/0 (C) ch, ~128 kbps - авторский

MediaInfo

Общее
Полное имя : H:\Amore.e.rabbia.1969.dvdrip_[1.46]_[teko].avi
Формат : AVI
Формат/Информация : Audio Video Interleave
Размер файла : 1,46 Гбайт
Продолжительность : 1 ч. 38 м.
Общий поток : 2126 Кбит/сек
Программа кодирования : VirtualDubMod 1.5.10.3 | www.virtualdub-fr.org || (build 2550/release)
Библиотека кодирования : VirtualDubMod build 2550/release
Видео
Идентификатор : 0
Формат : MPEG-4 Visual
Профиль формата : Advanced Simple@L5
Параметр BVOP формата : 1
Параметр QPel формата : Нет
Параметр GMC формата : Без точки перехода
Параметр матрицы формата : Выборочная
Идентификатор кодека : XVID
Идентификатор кодека/Подсказка : XviD
Продолжительность : 1 ч. 38 м.
Битрейт : 1856 Кбит/сек
Ширина : 704 пикселя
Высота : 304 пикселя
Соотношение сторон : 2,35:1
Частота кадров : 25,000 кадров/сек
Цветовое пространство : YUV
Субдискретизация насыщенности : 4:2:0
Битовая глубина : 8 бит
Тип развёртки : Прогрессивная
Метод сжатия : С потерями
Бит/(Пиксели*Кадры) : 0.347
Размер потока : 1,27 Гбайт (87%)
Библиотека кодирования : XviD 73
Аудио #1
Идентификатор : 1
Формат : AC-3
Формат/Информация : Audio Coding 3
Расширение режима : CM (complete main)
Параметр Endianness формата : Big
Идентификатор кодека : 2000
Продолжительность : 1 ч. 38 м.
Вид битрейта : Постоянный
Битрейт : 128 Кбит/сек
Каналы : 1 канал
Расположение каналов : Front: C
Частота : 48,0 КГц
Битовая глубина : 16 бит
Метод сжатия : С потерями
Размер потока : 89,9 Мбайт (6%)
Выравнивание : Разделение по промежуткам
Продолжительность промежутка : 40 мс. (1,00 видеокадр)
Время предзагрузки промежутка : 500 мс.
Аудио #2
Идентификатор : 2
Формат : AC-3
Формат/Информация : Audio Coding 3
Расширение режима : CM (complete main)
Параметр Endianness формата : Big
Идентификатор кодека : 2000
Продолжительность : 1 ч. 38 м.
Вид битрейта : Постоянный
Битрейт : 128 Кбит/сек
Каналы : 1 канал
Расположение каналов : Front: C
Частота : 48,0 КГц
Битовая глубина : 16 бит
Метод сжатия : С потерями
Размер потока : 89,9 Мбайт (6%)
Выравнивание : Разделение по промежуткам
Продолжительность промежутка : 40 мс. (1,00 видеокадр)
Время предзагрузки промежутка : 500 мс.
Релиз группы:
--
[teatrix.ru].t5803.torrent 
Торрент: Зарегистрирован [ 2015-10-10 00:35 ] · 7A070D4F8F702A83F397271D1B9AF9097BF99A71

Скачать .torrent

Скачать

15 KB

Статус: проверено
Скачан: 0 раз
Размер: 1.46 GB
terms.php



Быстрый ответ

Имя:

      
Для отправки сообщений необходимо включить JavaScript
Показать сообщения:    

Текущее время: 06-Дек 17:10

Часовой пояс: UTC + 3


Вы можете начинать темы
Вы можете отвечать на сообщения
Вы не можете редактировать свои сообщения
Вы не можете удалять свои сообщения
Вы не можете голосовать в опросах
Вы не можете прикреплять файлы к сообщениям
Вы можете скачивать файлы