Дориан Грей / The Secret of Dorian Gray / Il Dio chiamato Dorian (Массимо Далламано / Massimo Dallamano) [1970, Великобритания, Италия, ФРГ, мистика, триллер, DVDRip] DVO (НТВ)


Статистика раздачи [Обновить пиров]
Размер:  1.46 GB   |    Зарегистрирован:  1 год 1 месяц   |    Скачан:  1 раз

Полного источника не было: 25 дней

 
   
 
 
 

[Цитировать]

Дориан Грей / The Secret of Dorian Gray / Il Dio chiamato Dorian
Страна: Великобритания, Италия, ФРГ
Жанр: мистика, триллер
Год выпуска: 1970
Продолжительность: 01:37:04
Перевод: Профессиональный (двухголосый закадровый) - НТВ со вставками одноголосого
Cубтитры: нет

Режиссер: Массимо Далламано / Massimo Dallamano
В ролях: Хельмут Бергер, Ричард Тодд, Герберт Лом, Элеонора Росси Драго, Мари Лильедаль, Маргарет Ли, Мария Ром, Берил Каннингэм, Иза Миранда, Ренато Романо
Описание: Молодость Дориана — его единственная вещь, имеющая ценность, и Дориан понимает, что рано или поздно постареет и потеряет свою красоту. Юный Грей желает только одного — любыми путями сохранить драгоценную молодость.
Качество видео: DVDRip
Формат видео: AVI
Видео: 704x384 (1.83:1), 25 fps, XviD build 73 ~1913 kbps avg, 0.28 bit/pixel
Аудио: 48 kHz, AC3 Dolby Digital, 2/0 (L,R) ch, ~224 kbps

MediaInfo

Общее
Полное имя : H:\Il.Dio.chiamato.Dorian.1970.dvdrip_[1.46]_[teko].avi
Формат : AVI
Формат/Информация : Audio Video Interleave
Размер файла : 1,46 Гбайт
Продолжительность : 1 ч. 37 м.
Общий поток : 2147 Кбит/сек
Программа кодирования : VirtualDubMod 1.5.10.3 | www.virtualdub-fr.org || (build 2550/release)
Библиотека кодирования : VirtualDubMod build 2550/release
Видео
Идентификатор : 0
Формат : MPEG-4 Visual
Профиль формата : Advanced Simple@L5
Параметр BVOP формата : 1
Параметр QPel формата : Нет
Параметр GMC формата : Без точки перехода
Параметр матрицы формата : Выборочная
Идентификатор кодека : XVID
Идентификатор кодека/Подсказка : XviD
Продолжительность : 1 ч. 37 м.
Битрейт : 1914 Кбит/сек
Ширина : 704 пикселя
Высота : 384 пикселя
Соотношение сторон : 1,85:1
Частота кадров : 25,000 кадров/сек
Цветовое пространство : YUV
Субдискретизация насыщенности : 4:2:0
Битовая глубина : 8 бит
Тип развёртки : Прогрессивная
Метод сжатия : С потерями
Бит/(Пиксели*Кадры) : 0.283
Размер потока : 1,30 Гбайт (89%)
Библиотека кодирования : XviD 73
Аудио
Идентификатор : 1
Формат : AC-3
Формат/Информация : Audio Coding 3
Расширение режима : CM (complete main)
Параметр Endianness формата : Big
Идентификатор кодека : 2000
Продолжительность : 1 ч. 37 м.
Вид битрейта : Постоянный
Битрейт : 224 Кбит/сек
Каналы : 2 канала
Расположение каналов : Front: L R
Частота : 48,0 КГц
Битовая глубина : 16 бит
Метод сжатия : С потерями
Размер потока : 156 Мбайт (10%)
Выравнивание : Разделение по промежуткам
Продолжительность промежутка : 40 мс. (1,00 видеокадр)
Время предзагрузки промежутка : 500 мс.
[teatrix.ru].t5805.torrent 
Торрент: Зарегистрирован [ 2015-10-10 00:35 ] · A19FF71BC3FB01DE9C8DB7512972D8922AFD4249

Скачать .torrent

Скачать

15 KB

Статус: проверено
Скачан: 1 раз
Размер: 1.46 GB
terms.php



Быстрый ответ

Имя:

      
Для отправки сообщений необходимо включить JavaScript
Показать сообщения:    

Текущее время: 09-Дек 16:36

Часовой пояс: UTC + 3


Вы можете начинать темы
Вы можете отвечать на сообщения
Вы не можете редактировать свои сообщения
Вы не можете удалять свои сообщения
Вы не можете голосовать в опросах
Вы не можете прикреплять файлы к сообщениям
Вы можете скачивать файлы