Тимбукту / Timbuktu (Абдеррахман Сиссако / Abderrahmane Sissako) [2014, Франция, Мавритания, драма, HDRip] VO (PashaUP) + Sub Rus + Original Ara


 

[Цитировать]

Тимбукту / Timbuktu
Страна: Франция, Мавритания
Жанр: драма
Год выпуска: 2014
Продолжительность: 01:35:55
Перевод: Одноголосый закадровый PashaUP
Cубтитры: русские
Оригинальная аудиодорожка: арабский
Режиссер: Абдеррахман Сиссако / Abderrahmane Sissako
В ролях: Ибрахим Ахмед, Тулу Кики, Абель Жафри, Фатумата Диавара, Хайсем Якуби, Кеттли Ноэль, Мехди А. Мохамед, Лайла Валет Мохамед, Адель Махмуд Шериф, Салем Денду
Описание: Когда к власти в Тимбукту приходят религиозные фундаменталисты, жизнь простых людей превращается в ад, в котором запрещены любые развлечения, музыка, смех и любые попытки инакомыслия. Вдали от всего этого безумия, за пределами городской черты живет Кидан со своей женой Сатимой, дочерью Тойей и их 12-летним сыном, юным пастухом Иссаном. До поры до времени им удается вести мирную жизнь, в то время, как совсем рядом с ними каждый день вершится несправедливость. Все меняется в тот день, когда Кидан случайно убивает местного рыбака, зарезавшего его любимую корову. Все зло того мира, от которого хотели держаться подальше герой и его семья, обрушивается на них.
Сэмпл: http://multi-up.com/1052491
Качество видео: HDRip
Формат видео: AVI
Видео: 720x304 (2.37:1), 23.976 fps, XviD build 64 ~1662 kbps avg, 0.32 bit/pixel
Аудио: 48 kHz, AC3 Dolby Digital, 2/0 (L,R) ch, ~256 kbps
Аудио 2: 48 kHz, AC3 Dolby Digital, 2/0 (L,R) ch, ~256 kbps

MediaInfo

Формат : AVI
Формат/Информация : Audio Video Interleave
Профиль формата : OpenDML
Размер файла : 1,46 Гбайт
Продолжительность : 1 ч. 35 м.
Общий поток : 2181 Кбит/сек
Название фильма : Timbuktu.2014..720p.BRRip.850MB.MkvCage
Программа кодирования : XviD4PSP 6.0 / 54.29.105
Видео
Идентификатор : 0
Формат : MPEG-4 Visual
Профиль формата : Advanced Simple@L5
Параметр BVOP формата : 1
Параметр QPel формата : Нет
Параметр GMC формата : Без точки перехода
Параметр матрицы формата : Default (H.263)
Идентификатор кодека : XVID
Идентификатор кодека/Подсказка : XviD
Продолжительность : 1 ч. 35 м.
Битрейт : 1650 Кбит/сек
Ширина : 720 пикселей
Высота : 304 пикселя
Соотношение сторон : 2,40:1
Частота кадров : 23,976 кадра/сек
Цветовое пространство : YUV
Субдискретизация насыщенности : 4:2:0
Битовая глубина : 8 бит
Тип развёртки : Прогрессивная
Метод сжатия : С потерями
Бит/(Пиксели*Кадры) : 0.314
Размер потока : 1,11 Гбайт (76%)
Библиотека кодирования : XviD 64
Аудио #1
Идентификатор : 1
Формат : AC-3
Формат/Информация : Audio Coding 3
Расширение режима : CM (complete main)
Параметр Endianness формата : Big
Идентификатор кодека : 2000
Продолжительность : 1 ч. 35 м.
Вид битрейта : Постоянный
Битрейт : 256 Кбит/сек
Каналы : 2 канала
Расположение каналов : Front: L R
Частота : 48,0 КГц
Битовая глубина : 16 бит
Метод сжатия : С потерями
Размер потока : 176 Мбайт (12%)
Выравнивание : Соединение по промежуткам
Продолжительность промежутка : 32 мс. (0,77 видеокадр)
Аудио #2
Идентификатор : 2
Формат : AC-3
Формат/Информация : Audio Coding 3
Расширение режима : CM (complete main)
Параметр Endianness формата : Big
Идентификатор кодека : 2000
Продолжительность : 1 ч. 35 м.
Вид битрейта : Постоянный
Битрейт : 256 Кбит/сек
Каналы : 2 канала
Расположение каналов : Front: L R
Частота : 48,0 КГц
Битовая глубина : 16 бит
Метод сжатия : С потерями
Размер потока : 176 Мбайт (12%)
Выравнивание : Соединение по промежуткам
Продолжительность промежутка : 32 мс. (0,77 видеокадр)

Скриншоты




Показать сообщения:    

Текущее время: 08-Дек 14:59

Часовой пояс: UTC + 3


Вы не можете начинать темы
Вы не можете отвечать на сообщения
Вы не можете редактировать свои сообщения
Вы не можете удалять свои сообщения
Вы не можете голосовать в опросах
Вы не можете прикреплять файлы к сообщениям
Вы не можете скачивать файлы