Жизнь наизнанку / Жизнь задом наперед / La Vie à l'Envers (Ален Жессюа / Alain Jessua) [1964, Франция, драма, трагикомедия, DVDRip] AVO (Алексеев) + Original Fre


Статистика раздачи [Обновить пиров]
Размер:  1.46 GB   |    Зарегистрирован:  1 год 1 месяц   |    Скачан:  0 раз

Полного источника не было: Никогда

 
   
 
 
 

[Цитировать]

Жизнь наизнанку / Жизнь задом наперед / La Vie à l'Envers
Страна: Франция
Жанр: драма, трагикомедия
Год выпуска: 1964
Продолжительность: 01:31:03
Перевод: Авторский (одноголосый закадровый) - Антон Алексеев
Cубтитры: нет
Оригинальная аудиодорожка: французский

Режиссер: Ален Жессюа / Alain Jessua
В ролях: Шарль Деннер, Анна Гейлор, Гай Сен-Жан, Николь Геден, Ивонн Клеш, Жан Янн, Роберт Буске, Нан Жермон, Андре Торан, Бернар Сури
Описание: На международном кинофестивале в Венеции в 1964 году картина Алена Жессюа была отмечена как лучший дебют.
И по сей день эта картина считается одной из его самых блестящих работ. В основе сюжета «Жизни наизнанку» история молодого мужчины, который начинает испытывать все нарастающее разочарование в богемной жизни буржуазного Парижа и постепенно с головой погружается в свой собственный герметичный мирок. С точки зрения общепринятых стандартов, главный герой практически сходит с ума, однако для этого человека с хрупкой душевной организацией подобный выход, вполне вероятно, единственно возможный. Зрители постепенно смогут почувствовать себя внутри искаженного сознания героя и наблюдать окружающую жизнь с его точки зрения. А через некоторое время мы вслед за ним перестанем понимать, где кончается реальность и начинается фантазия, и что более «реально».
--Перевод на слух выполнила n_mambasa, за что ей огромное спасибо!--Качество видео: DVDRip
Формат видео: AVI
Видео: 656x400 (1.64:1), 25 fps, XviD build 73 ~1894 kbps avg, 0.29 bit/pixel
Аудио: 48 kHz, AC3 Dolby Digital, 2/0 (L,R) ch, ~192 kbps - авторский
Аудио: 48 kHz, AC3 Dolby Digital, 2/0 (L,R) ch, ~192 kbps - оригинал

MediaInfo

Общее
Полное имя : H:\La.Vie.a.l'Envers.1964.dvdrip_[1.46]_[teko].avi
Формат : AVI
Формат/Информация : Audio Video Interleave
Размер файла : 1,46 Гбайт
Продолжительность : 1 ч. 31 м.
Общий поток : 2294 Кбит/сек
Программа кодирования : VirtualDubMod 1.5.10.3 | www.virtualdub-fr.org || (build 2550/release)
Библиотека кодирования : VirtualDubMod build 2550/release
Видео
Идентификатор : 0
Формат : MPEG-4 Visual
Профиль формата : Advanced Simple@L5
Параметр BVOP формата : 1
Параметр QPel формата : Нет
Параметр GMC формата : Без точки перехода
Параметр матрицы формата : Выборочная
Идентификатор кодека : XVID
Идентификатор кодека/Подсказка : XviD
Продолжительность : 1 ч. 31 м.
Битрейт : 1896 Кбит/сек
Ширина : 656 пикселей
Высота : 400 пикселей
Соотношение сторон : 16:10
Частота кадров : 25,000 кадров/сек
Цветовое пространство : YUV
Субдискретизация насыщенности : 4:2:0
Битовая глубина : 8 бит
Тип развёртки : Прогрессивная
Метод сжатия : С потерями
Бит/(Пиксели*Кадры) : 0.289
Размер потока : 1,21 Гбайт (83%)
Библиотека кодирования : XviD 73
Аудио #1
Идентификатор : 1
Формат : AC-3
Формат/Информация : Audio Coding 3
Расширение режима : CM (complete main)
Параметр Endianness формата : Big
Идентификатор кодека : 2000
Продолжительность : 1 ч. 31 м.
Вид битрейта : Постоянный
Битрейт : 192 Кбит/сек
Каналы : 2 канала
Расположение каналов : Front: L R
Частота : 48,0 КГц
Битовая глубина : 16 бит
Метод сжатия : С потерями
Размер потока : 125 Мбайт (8%)
Выравнивание : Разделение по промежуткам
Продолжительность промежутка : 40 мс. (1,00 видеокадр)
Время предзагрузки промежутка : 500 мс.
Аудио #2
Идентификатор : 2
Формат : AC-3
Формат/Информация : Audio Coding 3
Расширение режима : CM (complete main)
Параметр Endianness формата : Big
Идентификатор кодека : 2000
Продолжительность : 1 ч. 30 м.
Вид битрейта : Постоянный
Битрейт : 192 Кбит/сек
Каналы : 2 канала
Расположение каналов : Front: L R
Частота : 48,0 КГц
Битовая глубина : 16 бит
Метод сжатия : С потерями
Размер потока : 125 Мбайт (8%)
Выравнивание : Разделение по промежуткам
Продолжительность промежутка : 40 мс. (1,00 видеокадр)
Время предзагрузки промежутка : 500 мс.
[teatrix.ru].t5808.torrent 
Торрент: Зарегистрирован [ 2015-10-10 00:35 ] · 11DC870DEA79C97A4C5112A2369B11FE6840DD89

Скачать .torrent

Скачать

15 KB

Статус: проверено
Скачан: 0 раз
Размер: 1.46 GB
terms.php



Быстрый ответ

Имя:

      
Для отправки сообщений необходимо включить JavaScript
Показать сообщения:    

Текущее время: 06-Дек 18:59

Часовой пояс: UTC + 3


Вы можете начинать темы
Вы можете отвечать на сообщения
Вы не можете редактировать свои сообщения
Вы не можете удалять свои сообщения
Вы не можете голосовать в опросах
Вы не можете прикреплять файлы к сообщениям
Вы можете скачивать файлы