Девушка из ниоткуда / La fille de nulle part / The Girl from Nowhere (Жан-Клод Бриссо / Jean-Claude Brisseau) [2012, Франция, драма, DVDRip] AVO (Визгунов)


Статистика раздачи [Обновить пиров]
Размер:  1.42 GB   |    Зарегистрирован:  1 год 1 месяц   |    Скачан:  0 раз

Полного источника не было: Никогда

 
   
 
 
 

[Цитировать]

Девушка из ниоткуда / La fille de nulle part / The Girl from Nowhere
Страна: Франция
Жанр: драма
Год выпуска: 2012
Продолжительность: 01:31:09
Перевод: Авторский (одноголосый закадровый) - Сергей Визгунов
Cубтитры: английские (вшитые изначально на DVD)

Режиссер: Жан-Клод Бриссо / Jean-Claude Brisseau
В ролях: Виржини Леже, Клод Морел, Жан-Клод Бриссо, Лизе Беллинк, Себастьен Байли, Анни Верри, Эммануэль Нобле
Описание: Фильм рассказывает историю бывшего учителя математики Мишеля, который после смерти жены живет в одиночестве и пишет эссе. Однажды на пороге своего дома он видит раненую бездомную девушку Дору. Мишель решает приютить ее, но вскоре в его квартире начинают происходить странные события.
Качество видео: DVDRip
Формат видео: AVI
Видео: 704x400 (1.76:1), 25 fps, XviD build 73 ~2031 kbps avg, 0.29 bit/pixel
Аудио: 48 kHz, AC3 Dolby Digital, 2/0 (L,R) ch, ~192 kbps

MediaInfo

Общее
Полное имя : H:\La.fille.de.nulle.part.2012dvdrip_[1.46]_[teko].avi
Формат : AVI
Формат/Информация : Audio Video Interleave
Размер файла : 1,42 Гбайт
Продолжительность : 1 ч. 31 м.
Общий поток : 2233 Кбит/сек
Программа кодирования : VirtualDubMod 1.5.10.3 | www.virtualdub-fr.org || (build 2550/release)
Библиотека кодирования : VirtualDubMod build 2550/release
Видео
Идентификатор : 0
Формат : MPEG-4 Visual
Профиль формата : Advanced Simple@L5
Параметр BVOP формата : 1
Параметр QPel формата : Нет
Параметр GMC формата : Без точки перехода
Параметр матрицы формата : Выборочная
Идентификатор кодека : XVID
Идентификатор кодека/Подсказка : XviD
Продолжительность : 1 ч. 31 м.
Битрейт : 2031 Кбит/сек
Ширина : 704 пикселя
Высота : 400 пикселей
Соотношение сторон : 16:9
Частота кадров : 25,000 кадров/сек
Цветовое пространство : YUV
Субдискретизация насыщенности : 4:2:0
Битовая глубина : 8 бит
Тип развёртки : Прогрессивная
Метод сжатия : С потерями
Бит/(Пиксели*Кадры) : 0.289
Размер потока : 1,29 Гбайт (91%)
Библиотека кодирования : XviD 73
Аудио
Идентификатор : 1
Формат : AC-3
Формат/Информация : Audio Coding 3
Расширение режима : CM (complete main)
Параметр Endianness формата : Big
Идентификатор кодека : 2000
Продолжительность : 1 ч. 31 м.
Вид битрейта : Постоянный
Битрейт : 192 Кбит/сек
Каналы : 2 канала
Расположение каналов : Front: L R
Частота : 48,0 КГц
Битовая глубина : 16 бит
Метод сжатия : С потерями
Задержка видео : 24 мс.
Размер потока : 125 Мбайт (9%)
Выравнивание : Разделение по промежуткам
Продолжительность промежутка : 40 мс. (1,00 видеокадр)
Время предзагрузки промежутка : 500 мс.
[teatrix.ru].t5809.torrent 
Торрент: Зарегистрирован [ 2015-10-10 00:35 ] · 4EE0001300C0F7692438CE0C34CFD35866C8F7A0

Скачать .torrent

Скачать

15 KB

Статус: проверено
Скачан: 0 раз
Размер: 1.42 GB
terms.php



Быстрый ответ

Имя:

      
Для отправки сообщений необходимо включить JavaScript
Показать сообщения:    

Текущее время: 06-Дек 22:56

Часовой пояс: UTC + 3


Вы можете начинать темы
Вы можете отвечать на сообщения
Вы не можете редактировать свои сообщения
Вы не можете удалять свои сообщения
Вы не можете голосовать в опросах
Вы не можете прикреплять файлы к сообщениям
Вы можете скачивать файлы