Дамы и господа: Окончательный монтаж / Final Cut: Ladies and Gentlemen / Final Cut: Hölgyeim és uraim (Дёрдь Палфи / Gyorgy Palfi) [2012, Венгрия, драма, комедия, кино-коллаж, DVDRip-AVC] VO (liosaa) + Sub Rus, Eng, Hun + Original


Статистика раздачи [Обновить пиров]
Размер:  1.45 GB   |    Зарегистрирован:  1 год 1 месяц   |    Скачан:  0 раз

Полного источника не было: Никогда

 
   
 
 
 

[Цитировать]

Дамы и господа: Окончательный монтаж / Final Cut: Ladies & Gentlemen
Страна: Венгрия
Жанр: драма, комедия, кино-коллаж
Год выпуска: 2012
Продолжительность: 1:25:00
Перевод: Одноголосый закадровый (liosaa)
Cубтитры: русские (liosaa), английские, венгерские (покадровый монтажный лист*) *полный список есть на оф. сайте
Оригинальная аудиодорожка: мультиязычная
Режиссер: Дёрдь Палфи / Gyorgy Palfi
В ролях: Брижит Бардо, Ален Делон, Жан-Поль Бельмондо, Грета Гарбо, Рита Хэйворт, Джульетта Мазина, Марчелло Мастроянни, Жанна Моро и др.
Описание: ...А как по-вашему - кто такой НАСТОЯЩИЙ МУЖЧИНА?
Предположим, он элегантный жеребец - например, Марчелло Мастроянни из "Сладкой жизни"... Только кулаки перебинтованы, как у Брэда Питта в "Бойцовском клубе"... А может, это пылкий пацан, вроде Лео Ди Каприо с "Титаника" ?.. Или, скажем, Ален Делон в "Рокко и братьях", только ростом повыше - с Бельмондо!.. Вообще-то он надменный засранец, ну вылитый Кларк Гейбл, а бывает, сядет в уголок и чуть не плачет, ни дать ни взять Тони Люн в "Любовном настроении"... То он невозмутимый дуболом Шон Коннери (или Дэниел Крейг) в образе Бонда, то капризный эксцентрик - непостижимый Латинович в роли Синдбада... А может, это сам Чарли Чаплин - неприкаянный бродяга, затерянный среди миров, или - для любителей кошмаров - таинственный упырь Гэри Олдман из "Дракулы". И совершенно очевидно - он заряжен остроумием, как Вуди Аллен в постели с Энни Холл...
...А что вы скажете о НАСТОЯЩЕЙ ЖЕНЩИНЕ?
Она, конечно, существо взбалмошное и непредсказуемое, как Джина Лоллобриджида, а вместе с тем грациозное и благовоспитанное, как Одри Хепберн... Смешная девчонка с повадками Одри Тоту - только холодная и рассудительная, как Грета Гарбо... Возможно, это наша вечная соседка Джули Робертс с загадочной улыбкой Авы Гарднер?.. А может, недостижимое божество Софи Лорен, только по-земному теплое и телесное, как Моника Беллуччи?.. Она неуловима как эфирные масла, или как Лив Тайлер в роли эльфийской царицы... Как Шэрон Стоун, тверда и неумолима, и вместе с тем растрепанно-наивна, как Зита Селецки... И да - забыли про главное - целуется она не хуже Ким Новак!
...Так вот - с Божьей помощью - представим, что случится, если НАСТОЯЩИЙ МУЖЧИНА вдруг встретит её, НАСТОЯЩУЮ ЖЕНЩИНУ?!!

Сэмпл: http://multi-up.com/1052170
Качество видео: DVDRip-AVC
Формат видео: MKV
Видео: x264, 720x576 ~> 1024x576 (16:9), 25.000 fps, 2 050 Kbps
Аудио 1: 2.0ch AC-3 @ 192 Kbps (рус)
Аудио 2: 2.0ch AC-3 @ 192 Kbps (original)
Формат субтитров: softsub (SRT)
Доп. информация: .....рип не мой, скачан из сети (без хардсаба!).....
....... ТАКСИДЕРМИЯ.... (2006, перевод *liosaa)....

MediaInfo

Формат : Matroska
Версия формата : Version 2
Размер файла : 1,45 Гбайт
Продолжительность : 1 ч. 25 м.
Общий поток : 2428 Кбит/сек
Дата кодирования : UTC 2015-06-04 18:47:40
Программа кодирования : mkvmerge v3.0.0 ('Hang up your Hang-Ups') built on Dec 12 2009 15:20:35
Библиотека кодирования : libebml v0.7.9 + libmatroska v0.8.1
Видео
Идентификатор : 1
Формат : AVC
Формат/Информация : Advanced Video Codec
Профиль формата : High@L3.1
Параметр CABAC формата : Да
Параметр ReFrames формата : 9 кадров
Идентификатор кодека : V_MPEG4/ISO/AVC
Продолжительность : 1 ч. 25 м.
Битрейт : 2050 Кбит/сек
Ширина : 720 пикселей
Высота : 576 пикселей
Соотношение сторон : 16:9
Режим частоты кадров : Постоянный
Частота кадров : 25,000 кадров/сек
Стандарт вещания : PAL
Цветовое пространство : YUV
Субдискретизация насыщенности : 4:2:0
Битовая глубина : 8 бит
Тип развёртки : Прогрессивная
Бит/(Пиксели*Кадры) : 0.198
Размер потока : 1,20 Гбайт (82%)
Библиотека кодирования : x264 core 138 r2358 9e941d1
Настройки программы : cabac=1 / ref=9 / deblock=1:-3:-3 / analyse=0x3:0x133 / me=umh / subme=10 / psy=1 / psy_rd=1.00:0.15 / mixed_ref=1 / me_range=28 / chroma_me=1 / trellis=2 / 8x8dct=1 / cqm=0 / deadzone=21,11 / fast_pskip=0 / chroma_qp_offset=-3 / threads=3 / lookahead_threads=1 / sliced_threads=0 / nr=0 / decimate=0 / interlaced=0 / bluray_compat=0 / constrained_intra=0 / bframes=5 / b_pyramid=2 / b_adapt=2 / b_bias=0 / direct=3 / weightb=1 / open_gop=0 / weightp=2 / keyint=250 / keyint_min=25 / scenecut=40 / intra_refresh=0 / rc_lookahead=60 / rc=2pass / mbtree=1 / bitrate=2050 / ratetol=3.0 / qcomp=0.60 / qpmin=0 / qpmax=69 / qpstep=4 / cplxblur=20.0 / qblur=0.5 / vbv_maxrate=14000 / vbv_bufsize=14000 / nal_hrd=none / ip_ratio=1.40 / aq=1:1.00
Язык : English
Default : Нет
Forced : Нет
Аудио #1
Идентификатор : 2
Формат : AC-3
Формат/Информация : Audio Coding 3
Расширение режима : CM (complete main)
Параметр Endianness формата : Big
Идентификатор кодека : A_AC3
Продолжительность : 1 ч. 25 м.
Вид битрейта : Постоянный
Битрейт : 192 Кбит/сек
Каналы : 2 канала
Расположение каналов : Front: L R
Частота : 48,0 КГц
Битовая глубина : 16 бит
Метод сжатия : С потерями
Размер потока : 118 Мбайт (8%)
Заголовок : Закадровый (liosaa)
Язык : Russian
Default : Да
Forced : Нет
Аудио #2
Идентификатор : 3
Формат : AC-3
Формат/Информация : Audio Coding 3
Расширение режима : CM (complete main)
Параметр Endianness формата : Big
Идентификатор кодека : A_AC3
Продолжительность : 1 ч. 25 м.
Вид битрейта : Постоянный
Битрейт : 192 Кбит/сек
Каналы : 2 канала
Расположение каналов : Front: L R
Частота : 48,0 КГц
Битовая глубина : 16 бит
Метод сжатия : С потерями
Размер потока : 118 Мбайт (8%)
Заголовок : Original
Default : Нет
Forced : Нет
Текст #1
Идентификатор : 4
Формат : UTF-8
Идентификатор кодека : S_TEXT/UTF8
Идентификатор кодека/Информация : UTF-8 Plain Text
Заголовок : Русские (liosaa)
Язык : Russian
Default : Да
Forced : Нет
Текст #2
Идентификатор : 5
Формат : UTF-8
Идентификатор кодека : S_TEXT/UTF8
Идентификатор кодека/Информация : UTF-8 Plain Text
Заголовок : English
Язык : English
Default : Нет
Forced : Нет
Текст #3
Идентификатор : 6
Формат : UTF-8
Идентификатор кодека : S_TEXT/UTF8
Идентификатор кодека/Информация : UTF-8 Plain Text
Заголовок : Movie list
Язык : Hungarian
Default : Нет
Forced : Нет

Скриншот c названием фильма

[teatrix.ru].t5810.torrent 
Торрент: Зарегистрирован [ 2015-10-10 00:35 ] · 3CC3872127D77A8534368649769D7DADFD872390

Скачать .torrent

Скачать

15 KB

Статус: проверено
Скачан: 0 раз
Размер: 1.45 GB
terms.php



Быстрый ответ

Имя:

      
Для отправки сообщений необходимо включить JavaScript
Показать сообщения:    

Текущее время: 09-Дек 22:28

Часовой пояс: UTC + 3


Вы можете начинать темы
Вы можете отвечать на сообщения
Вы не можете редактировать свои сообщения
Вы не можете удалять свои сообщения
Вы не можете голосовать в опросах
Вы не можете прикреплять файлы к сообщениям
Вы можете скачивать файлы