Нужно убить Секала / Je treba zabit Sekala (Владимир Михалек / Vladimir Michalek) [1998, Чехия, Словакия, Франция, Польша, драма, HDRip] VO


 

[Цитировать]

Нужно убить Секала / Je treba zabít Sekala- Страна: Чехия, Словакия, Франция, Польша
Жанр: Драма
Год выпуска: 1998
Продолжительность: 01:54:24-Перевод: Одноголосый закадровый
Cубтитры: нет-Режиссер: Владимир Михалек / Vladimír Michálek-В ролях: Богуслав Линда, Олаф Любашенко, Иржи Бартошка, Агнешка Ситэк, Власта Храмостова, Мартин Ситта, Иржи Голы, Милан Рис, Антон Шулик-Описание: В деревню приезжает Иван Секал, который жил здесь когда-то. Незаконнорожденный сын, он был брошен своим отцом и в течение многих лет был изгоем и терпел издевтельства жителей, которые называли его «сволочью». В 1930-е годы он воевал в гражданской войне в Испании на стороне революционеров, поддерживаемых в частности III Рейхом. Теперь, служа нацистским оккупантам, и с их помощью Секал рассчитывает отомстить за годы унижений. Используя своё положение, он по очереди начинает отбирать земли у тех, кто его унижал, а в случае сопротивления отдаёт их немцам на смерть. Испуганные жители составляют план убийства Секала, чтобы, наконец, избавиться от него. В качестве орудия мести они выбирают скрывающегося от гестапо кузнеца Юрия Барана.-Sample | IMDB | КиноПоиск-Тип релиза: HDRip [исх. BDRip 720p]
Формат видео: AVI-Видео: 720x384 (1.88:1), 24.000 fps, XviD build 50, 1694 kbps avg, 0.26 bit/pixel
Аудио: 48 kHz, MPEG Layer 3, 2 ch, 128.00 kbps avg [Russian_VO]-

MediaInfo

General
Complete name : D:\Мои релизы\Je treba zabit Sekala_HDRip_RG_All_Films.avi
Format : AVI
Format/Info : Audio Video Interleave
File size : 1.46 GiB
Duration : 1h 54mn
Overall bit rate : 1 832 Kbps
Writing application : VirtualDubMod 1.5.10.3 | www.virtualdub-fr.org || (build 2550/release)
Writing library : VirtualDubMod build 2550/release
Video
ID : 0
Format : MPEG-4 Visual
Format profile : Advanced Simple@L5
Format settings, BVOP : Yes
Format settings, QPel : No
Format settings, GMC : No warppoints
Format settings, Matrix : Custom
Codec ID : XVID
Codec ID/Hint : XviD
Duration : 1h 54mn
Bit rate : 1 694 Kbps
Width : 720 pixels
Height : 384 pixels
Display aspect ratio : 1.875
Frame rate : 24.000 fps
Color space : YUV
Chroma subsampling : 4:2:0
Bit depth : 8 bits
Scan type : Progressive
Compression mode : Lossy
Bits/(Pixel*Frame) : 0.255
Stream size : 1.35 GiB (93%)
Writing library : XviD 1.2.1 (UTC 2008-12-04)
Audio
ID : 1
Format : MPEG Audio
Format version : Version 1
Format profile : Layer 3
Mode : Joint stereo
Mode extension : MS Stereo
Codec ID : 55
Codec ID/Hint : MP3
Duration : 1h 54mn
Bit rate mode : Constant
Bit rate : 128 Kbps
Channel(s) : 2 channels
Sampling rate : 48.0 KHz
Compression mode : Lossy
Stream size : 105 MiB (7%)
Alignment : Aligned on interleaves
Interleave, duration : 42 ms (1.00 video frame)
Interleave, preload duration : 504 ms
Writing library : LAME3.90.3

Скриншоты




Показать сообщения:    

Текущее время: 19-Янв 16:05

Часовой пояс: UTC + 3


Вы не можете начинать темы
Вы не можете отвечать на сообщения
Вы не можете редактировать свои сообщения
Вы не можете удалять свои сообщения
Вы не можете голосовать в опросах
Вы не можете прикреплять файлы к сообщениям
Вы не можете скачивать файлы