Бамако / Bamako (Абдеррахман Сиссако / Abderrahmane Sissako) [2006, Мали, США, Франция, драма, DVB] Original (Fre) + Sub (Rus)


Статистика раздачи [Обновить пиров]
Размер:  2.71 GB   |    Зарегистрирован:  1 год 2 месяца   |    Скачан:  1 раз

Полного источника не было: 1 месяц 21 день

 
   
 
 
 

[Цитировать]

Бамако
Bamako- Страна: Мали, США, Франция
Жанр: драма
Год выпуска: 2006
Продолжительность: 01:52:04
Перевод: Субтитры (русский перевод Г.Мирзоевой, Éclair Group)
Cубтитры: русские, французские, немецкие, румынские
Оригинальная аудиодорожка: французский
Режиссер: Абдеррахман Сиссако / Abderrahmane SissakoВ ролях: Айса Майга / Aïssa Maïga (Melé), Тиекура Траоре / Tiécoura Traoré (Chaka), Маймуна Хелен Диарра / Maimouna Hélène Diarra (Saramba), Балла Хабиб Дембеле / Balla Habib Dembélé (Falaï), Уильям Бурдон / William Bourdon (Avocat partie civile), Дэнни Гловер / Danny Glover (Cow-boy), Элиа Сулейман / Elia Suleiman (Cow-boy), Абдеррахман Сиссако / Abderrahmane Sissako (Cow-boy)
Описание: Фильм оскаровского номинанта Абдеррахмана Сиссако непрост для просмотра. Основное действие, как в спектакле, локализовано в узком пространстве двора, где идет судебное заседание. Через двор постоянно проходят разные люди — женщины с детьми, мужчины, замкнувшиеся в своем молчании и словно не понимающие о чем идет речь на суде, который уже надоел. Заседание прерывается свадебной процессией, самая простая жизнь проходит перед глазами, как калейдоскоп картинок. Вот маленький ребенок, готовый заплакать, женщины, красящие ткани, больной человек, переносящий в молчании свое страдание. Вот женщина, которая поет в кафе, она тоже не обращает внимания на суд, как на некую формальность, не имеющую к ней никакого отношения. Но ее гордо посаженная голова и врожденное чувство собственного достоинства — то же спокойное достоинство видишь на лицах всех жителей — говорят о внутренней силе и внушают уважение. (Тристрам Шенди)
Доп. информация: Hot Bird (13.0°E) TV5MONDE Europe DVB-S. Во время нефранцузской речи на экране вшитые французские субтитры.
Награды: номинация на премию "Сезар" 2007 в категории "Актриса-надежда" (Aïssa Maïga); приз зрительских симпатий Paris Cinema 2006; приз Lumiere Awards, France 2007 за лучший франкоязычный фильм; награда FACE Award - Istanbul International Film Festival 2007. Участник Cannes Film Festival 2006.

Качество видео: DVB
Формат видео: DVD Video
Видео: MPEG Video 2, 720x576@1024x576 (16:9), 25 fps, ~3202 kbps avg, 0.309 bit/pixel
Аудио: MPEG Audio 2, 2 ch, 48 kHz, ~192.00 kbps avg - французский
Формат субтитров: prerendered (IDX+SUB)

DVDInfo, MediaInfo

Title: [apreder]Bamako(2006)DVBSize: 2.71 Gb ( 2 839 880,00 KBytes ) - DVD-5Enabled regions: 1, 2, 3, 4, 5, 6, 7, 8
VTS_01 : Play Length: 01:52:04 Video: PAL 16:9 (720x576) VBR, Auto Letterboxed Audio: Francais (MPEG1, 2 ch) Subtitles: Russian Francais Deutsch Romanian
ОбщееПолное имя : H:\My Torrents\[apreder]Bamako(2006)DVB\VIDEO_TS\VTS_01_2.VOBФормат : MPEG-PSРазмер файла : 1024 МбайтПродолжительность : 41 м.Режим общего битрейта : ПеременныйОбщий поток : 3463 Кбит/сек
ВидеоИдентификатор : 224 (0xE0)Формат : MPEG VideoВерсия формата : Version 2Профиль формата : Main@MainПараметр BVOP формата : ДаПараметр матрицы формата : ВыборочнаяПараметр GOP формата : M=4, N=12Format_Settings_PictureStructure : FrameПродолжительность : 41 м.Вид битрейта : ПеременныйБитрейт : 3202 Кбит/секШирина : 720 пикселейВысота : 576 пикселейСоотношение сторон : 16:9Частота кадров : 25,000 кадров/секСтандарт вещания : PALЦветовое пространство : YUVСубдискретизация насыщенности : 4:2:0Битовая глубина : 8 битТип развёртки : ЧересстрочнаяПорядок развёртки : Верхнее поле первоеМетод сжатия : С потерямиБит/(Пиксели*Кадры) : 0.309Временной код первого кадра : 00:41:25:20Оригинал временного кода : Group of pictures headerРазмер потока : 947 Мбайт (92%)
АудиоИдентификатор : 192 (0xC0)Формат : MPEG AudioВерсия формата : Version 1Профиль формата : Layer 2Режим : Joint stereoРасширение режима : Intensity Stereo + MS StereoПродолжительность : 41 м.Вид битрейта : ПостоянныйБитрейт : 192 Кбит/секКаналы : 2 каналаЧастота : 48,0 КГцМетод сжатия : С потерямиЗадержка видео : -624 мс.Размер потока : 56,8 Мбайт (6%)
Текст #1Идентификатор : 189 (0xBD)-32 (0x20)Формат : RLEФормат/Информация : Run-length encodingРежим смешивания : DVD-VideoПродолжительность : 41 м.Задержка видео : 7 с. 440 мс.
Текст #2Идентификатор : 189 (0xBD)-34 (0x22)Формат : RLEФормат/Информация : Run-length encodingРежим смешивания : DVD-VideoПродолжительность : 41 м.Задержка видео : 7 с. 440 мс.
Текст #3Идентификатор : 189 (0xBD)-35 (0x23)Формат : RLEФормат/Информация : Run-length encodingРежим смешивания : DVD-VideoПродолжительность : 41 м.Задержка видео : 7 с. 240 мс.
Текст #4Идентификатор : 189 (0xBD)-33 (0x21)Формат : RLEФормат/Информация : Run-length encodingРежим смешивания : DVD-Video

Скриншот c названием фильма

Скриншоты


Резервные скриншоты


-[2'307]
[teatrix.ru].t5812.torrent 
Торрент: Зарегистрирован [ 2015-10-10 00:35 ] · 4DAB74DCEE2A5F51599EE3B4647E2C85D019A10C

Скачать .torrent

Скачать

14 KB

Статус: проверено
Скачан: 1 раз
Размер: 2.71 GB
terms.php



Быстрый ответ

Имя:

      
Для отправки сообщений необходимо включить JavaScript
Показать сообщения:    

Текущее время: 10-Дек 02:16

Часовой пояс: UTC + 3


Вы можете начинать темы
Вы можете отвечать на сообщения
Вы не можете редактировать свои сообщения
Вы не можете удалять свои сообщения
Вы не можете голосовать в опросах
Вы не можете прикреплять файлы к сообщениям
Вы можете скачивать файлы