Дурацкое дело нехитрое / Kraftidioten / In Order of Disappearance (Ганс Петтер Моланд / Hans Petter Moland) [2014, Норвегия, Дания, Швеция, триллер, криминал, драма, BDRip-AVC] MVO + Original (Nor)


 

[Цитировать]

Дурацкое дело нехитрое
Kraftidioten / In Order of Disappearance


Страна: Норвегия, Дания, Швеция
Жанр: триллер, криминал, драма
Год выпуска: 2014
Продолжительность: 01:56:29
Перевод: Профессиональный (многоголосый закадровый)
Cубтитры: нет
Оригинальная аудиодорожка: Норвежский
Режиссер:
Ганс Петтер Моланд / Hans Petter Moland
В ролях:
Стеллан Скарсгард, Биргитта Йорт Сёренсен, Тобиас Зантельман, Кристофер Хивью, Бруно Ганц, Якоб Офтебро, Пол Сверре Валхейм Хаген, Андерс Баасмо Кристиансен, Сергей Трифунович, Петер Андерссон
Описание:
Норвегия. Зима. Трудолюбивый Нилс управляет мощным плужным снегоочистителем, который очищает дороги и горные проходы негостеприимного обледенелого ландшафта местности, где он сам живёт. Совсем недавно он был признан жителем года за свои старания, а теперь получает известие о том, что его сын погиб в результате передозировки героина. Отказываясь верить в правдивость официальной версии смерти своего сына, он начинает тайное расследование с целью найти предполагаемых убийц парня. Однако дальнейшие события разворачиваются самым непредсказуемым образом, и ему приходится стать таинственным героем, внушающим страх в преступном мире.

Релиз:
Автор рипа: Stalker oK
Сэмпл
Качество видео: BDRip-AVC [Blu-ray Remux 1080p-hdclub]
Формат видео: MKV
Видео кодек: AVC
Аудио кодек: AC3
Видео: 2039 Кбит/сек, 1152*490 (2,35:1), в 24,000 кадр/сек, AVC
Аудио #1: Russian, 192 Кбит/сек, 48,0 КГц, 16 бит, 2 канала(ов), AC-3
Аудио #2: Norwegian, 448 Кбит/сек, 48,0 КГц, 16 бит, 6 канала(ов), AC-3

MediaInfo

Общее
Уникальный идентификатор : 226975102300687188085470484245081247091 (0xAAC1D08A9DE88CA18E50F1821D304D73)
Полное имя : L:\рипы\Дурацкое дело нехитрое\Durackoe.delo.nehitroe.2014.BDRip-AVC.MVO.2.18Gb...stalkerok.new-team.mkv
Формат : Matroska
Размер файла : 2,18 Гбайт
Продолжительность : 1 ч. 56 м.
Общий поток : 2681 Кбит/сек
Название фильма : In Order of Disappearance, 2014 (New-Team) (Rip by Stalker oK)
Дата кодирования : UTC 2015-05-31 16:33:15
Программа кодирования : mkvmerge v7.9.0 ('Birds') 64bit
Библиотека кодирования : libebml v1.3.1 + libmatroska v1.4.2
Видео
Идентификатор : 1
Формат : AVC
Формат/Информация : Advanced Video Codec
Профиль формата : High@L4.1
Параметр CABAC формата : Да
Параметр ReFrames формата : 12 кадры
Идентификатор кодека : V_MPEG4/ISO/AVC
Продолжительность : 1 ч. 56 м.
Битрейт : 2039 Кбит/сек
Ширина : 1152 пикс.
Высота : 490 пикс.
Соотношение сторон : 2,35:1
Частота кадров : 24,000 кадр/сек
Цветовое пространство : YUV
Подвыборка цветности : 4:2:0
Битовая глубина : 8 бит
Тип развёртки : Прогрессивная
Бит/(Пиксели*Кадры) : 0.151
Размер потока : 1,62 Гбайт (74%)
Библиотека кодирования : x264 core 146 r2538kMod 121396c
Настройки программы : cabac=1 / ref=12 / deblock=1:-3:-3 / analyse=0x3:0x133 / me=umh / subme=11 / psy=1 / fade_compensate=0.00 / psy_rd=1.00:0.15 / mixed_ref=1 / me_range=32 / chroma_me=1 / trellis=2 / 8x8dct=1 / cqm=0 / deadzone=21,11 / fast_pskip=0 / chroma_qp_offset=-3 / threads=12 / lookahead_threads=3 / sliced_threads=0 / nr=0 / decimate=0 / interlaced=0 / bluray_compat=0 / constrained_intra=0 / fgo=0 / bframes=13 / b_pyramid=2 / b_adapt=2 / b_bias=0 / direct=3 / weightb=1 / open_gop=0 / weightp=2 / keyint=240 / keyint_min=24 / scenecut=40 / intra_refresh=0 / rc_lookahead=40 / rc=2pass / mbtree=0 / bitrate=2039 / ratetol=1.0 / qcomp=0.65 / qpmin=0 / qpmax=69 / qpstep=4 / cplxblur=20.0 / qblur=0.5 / vbv_maxrate=50000 / vbv_bufsize=62500 / nal_hrd=none / filler=0 / ip_ratio=1.30 / pb_ratio=1.20 / aq=3:0.75
Язык : English
Аудио #1
Идентификатор : 2
Формат : AC-3
Формат/Информация : Audio Coding 3
Расширение режима : CM (complete main)
Идентификатор кодека : A_AC3
Продолжительность : 1 ч. 56 м.
Вид битрейта : Постоянный
Битрейт : 192 Кбит/сек
Канал(ы) : 2 канала(ов)
Расположение каналов : Front: L R
Частота : 48,0 КГц
Битовая глубина : 16 бит
Метод сжатия : С потерями
Размер потока : 160 Мбайт (7%)
Язык : Russian
Аудио #2
Идентификатор : 3
Формат : AC-3
Формат/Информация : Audio Coding 3
Расширение режима : CM (complete main)
Идентификатор кодека : A_AC3
Продолжительность : 1 ч. 56 м.
Вид битрейта : Постоянный
Битрейт : 448 Кбит/сек
Канал(ы) : 6 канала(ов)
Расположение каналов : Front: L C R, Side: L R, LFE
Частота : 48,0 КГц
Битовая глубина : 16 бит
Метод сжатия : С потерями
Размер потока : 373 Мбайт (17%)
Язык : Norwegian
Меню
00:00:00.000 : en:Chapter 1
00:07:48.665 : en:Chapter 2
00:21:41.040 : en:Chapter 3
00:29:42.833 : en:Chapter 4
00:45:40.541 : en:Chapter 5
00:56:47.458 : en:Chapter 6
01:04:23.416 : en:Chapter 7
01:18:24.500 : en:Chapter 8
01:21:56.041 : en:Chapter 9
01:33:57.832 : en:Chapter 10
01:36:26.332 : en:Chapter 11
01:51:13.332 : en:Chapter 12

Скриншоты




Показать сообщения:    

Текущее время: 07-Дек 19:20

Часовой пояс: UTC + 3


Вы не можете начинать темы
Вы не можете отвечать на сообщения
Вы не можете редактировать свои сообщения
Вы не можете удалять свои сообщения
Вы не можете голосовать в опросах
Вы не можете прикреплять файлы к сообщениям
Вы не можете скачивать файлы