Тишина и крик / Молчание и крик / Csend és kiáltás / Csend es kialtas (Миклош Янчо / Miklós Jancsó) [1968, Венгрия, драма, DVDRip-AVC] Dub (Советский дубляж) + VO + Original Hun + Sub Eng


Статистика раздачи [Обновить пиров]
Размер:  1.09 GB   |    Зарегистрирован:  1 год 2 месяца   |    Скачан:  1 раз

Полного источника не было: 13 дней

 
   
 
 
 

[Цитировать]

Тишина и крик / Молчание и крик / Csend és kiáltás / Csend es kialtas
Жанр: Драма
Страна: Венгрия
Студия: Mafilm
Год выпуска: 1968
Продолжительность: 01:13:48
Перевод #1: Профессиональный (дублированный) - Советский дубляж (к/ст им.М.Горького)
Перевод #2: Одноголосый закадровый
Cубтитры: русские, английские
Оригинальная аудиодорожка: венгерский
Режиссер: Миклош Янчо / Miklós Jancsó
В ролях:
Мари Тёрёчик / Mari Töröcsik ... Тереза / Teréz
Йожеф Мадараш / József Madaras ... Карой / Károly
Золтан Латинович / Zoltán Latinovits ... Кемери, командир поста / Kémeri
Андреа Драхота / Andrea Drahota ... Анна / Anna
Андраш Козак / András Kozák ... Иштван, бывший боец рабочего полка / István
Иштван Буйтор / István Bujtor ... Ковач / Kovács II.
Ида Шименфальви / Ida Siménfalvy ... Мать Терезы / Teréz' mother
Янош Кольтаи / János Koltai ... Крестьянин / Peasant
Шандор Шименфальви / Sándor Siménfalvy … Старый крестьянин / Old peasant
Корнелия Шаллаи / Kornélia Sallay … тётя Вероника / Auntie Veronika
Янош Гёрбе / János Görbe ... Пастух / The shepherd
Ласло Сабо / László Szabó ... Детектив / Detective
Филипп Хаудикуэт / Philippe Haudiquet ... Фотограф / Photographer
Мари Бога / Mari Boga ...
Карой Эйслер / Károly Eisler ...
Мария Гоор Надь / Mária Goór Nagy
Описание: Описание: Третья часть трилогии Миклоша Янчо о революции – "Без надежды" (1966), "Звезды и солдаты" (1967), "Тишина и крик" (1967).
Осень 1919 года. Венгерская Социалистическая революция пала под натиском хортистской армии. Остатки сопротивления жестоко подавляются. Действие фильма происходит на хуторе, затерянном в степи.
В центре событий фильма, разыгрывающихся в эпоху белого террора, сменившего Венгерскую Коммуну 1919 г., находится "маленький человек". Затоптанный и беспомощный в борьбе против сил истории. Янчо ищет типическое в исторических ситуациях, в механизмах исторического действия…
Герой фильма - революционер - скрывается от преследования в одинокой избе на околице деревни. Крестьяне, прячущие его, уговаривают беглеца остаться с ними, приспособиться к их жизни... Однако герой предпочитает этой растительной жизни смерть.
Дополнительная информация: Релиз:
Автор рипа: pmv
Исходник найден в сети.
Большое спасибо за:
- звуковую дорожку с советским дубляжем - sulfum
- русскую звуковую дорожку с одноголосым переводом - petelin
- синхронизацию звука – pmv
Фильм дублирован на киностудии им. М.Горького в 1971 году.
Режиссёр дубляжа:
Эдуард Волк
Роли дублировали: Серафима Холина, Юрий Боголюбов, Рудольф Панков, Эдуард Бредун
IMDb = 7,2/10 from 338 users - http://www.imdb.com/title/tt0061536/
Кинопоиск = 7.300 (100) - http://www.kinopoisk.ru/film/75661/
Имеется непереведённый фрагмент с 00:25:53 по 00:26:40. Всего за 1 мин. 07 сек. не переведено 7 секунд, содержащих всего 4 фразы (4 строки субтитров). Файл субтитров прилагается.
Награды и номинации:
Venice Film Festival, 1968 год
Номинация:
- Золотой лев (Miklós Jancsó)
МКФ в Авеллино, 1967 год
– Золотой приз за лучшую режиссуру (Miklós Jancsó)
Главный приз венгерских кинокритиков в 1968 году
ПРОСЬБА к СКАЧАВШИМ. НЕ УХОДИТЕ С РАЗДАЧИ, ПОМОГИТЕ ДРУГИМ СКАЧАТЬ!!!
ВНИМАНИЕ!!! РИП ФОРМАТА mkv (кодек H.264) ВОСПРОИЗВОДИТСЯ НЕ НА ВСЕХ БЫТОВЫХ ВИДЕОПЛЕЕРАХ!!!
Качество видео: DVDRip-AVC
Формат видео: MKV
Видео: AVC (H.264), 704@756x336 (2.25:1), 25.00fps, 1 296 Kbps, 0.219 bit/pixel
Аудио #1: AC3, 48 Khz, Stereo (2 ch), 256 Kbps, CBR – Советский дубляж
Аудио #2: AC3, 48 Khz, Stereo (2 ch), 256 Kbps, CBR – Профессиональный (одноголосый)
Аудио #3: AC3, 48 Khz, Stereo (2 ch), 256 Kbps, CBR – Венгерский
Формат субтитров: softsub (SRT)

MediaInfo

General
Complete name : D:\torrents\ Silence-et-cri-1967-mkv\Silence et cri.mkv
Format : Matroska
File size : 1.09 GiB
Duration : 1h 13mn
Overall bit rate : 2 105 Kbps
Encoded date : UTC 2015-05-28 17:53:39
Writing application : mkvmerge v7.9.0 ('Birds') 64bit
Writing library : libebml v1.3.1 + libmatroska v1.4.2
Video
ID : 1
Format : AVC
Format/Info : Advanced Video Codec
Format profile : High@L3.1
Format settings, CABAC : Yes
Format settings, ReFrames : 16 frames
Muxing mode : Container profile=Unknown@3.1
Codec ID : V_MPEG4/ISO/AVC
Duration : 1h 13mn
Bit rate : 1 296 Kbps
Nominal bit rate : 1 345 Kbps
Width : 704 pixels
Height : 336 pixels
Display aspect ratio : 2.25:1
Original display aspect ratio : 2.095
Frame rate : 25.000 fps
Resolution : 8 bits
Colorimetry : 4:2:0
Scan type : Progressive
Bits/(Pixel*Frame) : 0.219
Stream size : 684 MiB (62%)
Writing library : x264 core 130 r2273 b3065e6
Encoding settings : cabac=1 / ref=16 / deblock=1:0:0 / analyse=0x3:0x133 / me=umh / subme=10 / psy=1 / psy_rd=1.00:0.00 / mixed_ref=1 / me_range=24 / chroma_me=1 / trellis=2 / 8x8dct=1 / cqm=0 / deadzone=21,11 / fast_pskip=1 / chroma_qp_offset=-2 / threads=30 / lookahead_threads=2 / sliced_threads=0 / nr=0 / decimate=1 / interlaced=0 / bluray_compat=0 / constrained_intra=0 / bframes=8 / b_pyramid=2 / b_adapt=2 / b_bias=0 / direct=3 / weightb=1 / open_gop=0 / weightp=2 / keyint=250 / keyint_min=25 / scenecut=40 / intra_refresh=0 / rc_lookahead=60 / rc=2pass / mbtree=1 / bitrate=1345 / ratetol=1.0 / qcomp=0.60 / qpmin=0 / qpmax=69 / qpstep=4 / cplxblur=20.0 / qblur=0.5 / ip_ratio=1.40 / aq=1:1.00
Audio #1
ID : 2
Format : AC-3
Format/Info : Audio Coding 3
Codec ID : A_AC3
Duration : 1h 13mn
Bit rate mode : Constant
Bit rate : 256 Kbps
Channel(s) : 2 channels
Channel positions : Front: L R
Sampling rate : 48.0 KHz
Stream size : 135 MiB (12%)
Audio #2
ID : 3
Format : AC-3
Format/Info : Audio Coding 3
Codec ID : A_AC3
Duration : 1h 13mn
Bit rate mode : Constant
Bit rate : 256 Kbps
Channel(s) : 2 channels
Channel positions : Front: L R
Sampling rate : 48.0 KHz
Stream size : 135 MiB (12%)
Audio #3
ID : 4
Format : AC-3
Format/Info : Audio Coding 3
Codec ID : A_AC3
Duration : 1h 13mn
Bit rate mode : Constant
Bit rate : 256 Kbps
Channel(s) : 2 channels
Channel positions : Front: L R
Sampling rate : 48.0 KHz
Stream size : 135 MiB (12%)

Скриншот c названием фильма

Скриншоты в анаформном виде

Скриншоты в разрешение 756 х 336

[teatrix.ru].t5816.torrent 
Торрент: Зарегистрирован [ 2015-10-10 00:35 ] · A662E1884D33919D8D48639849F6531BBD69C101

Скачать .torrent

Скачать

11 KB

Статус: проверено
Скачан: 1 раз
Размер: 1.09 GB
terms.php



Быстрый ответ

Имя:

      
Для отправки сообщений необходимо включить JavaScript
Показать сообщения:    

Текущее время: 10-Дек 11:57

Часовой пояс: UTC + 3


Вы можете начинать темы
Вы можете отвечать на сообщения
Вы не можете редактировать свои сообщения
Вы не можете удалять свои сообщения
Вы не можете голосовать в опросах
Вы не можете прикреплять файлы к сообщениям
Вы можете скачивать файлы