Полено / Otesanek (Ян Шванкмайер / Jan Švankmajer) [2000, Чехия, Великобритания, Япония, сюрреализм, драма, DVDRip-AVC] MVO (R5 Видеосервис) + Sub Rus


Статистика раздачи [Обновить пиров]
Размер:  2.84 GB   |    Зарегистрирован:  1 год 2 месяца   |    Скачан:  0 раз

Полного источника не было: Никогда

 
   
 
 
 

[Цитировать]

Полено / Otesanek
Страна: Чехия, Великобритания, Япония
Жанр: сюрреализм, драма
Год выпуска: 2000
Продолжительность: 02:06:09
Перевод: Профессиональный (многоголосый закадровый) R5 Видеосервис
Cубтитры: русские
Режиссер: Ян Шванкмайер / Jan Švankmajer
В ролях: Вероника Зилкова / Veronika Zilková, Ян Хартль / Jan Hartl, Ярослава Кретчмерова / Jaroslava Kretschmerová, Павел Новый / Pavel Nový, Кристина Адамкова / Kristina Adamcová
Описание: Карел (Ян Хартль) и Божена (Вероника Зилкова) — бездетная семейная пара. Однажды Карел принёс в дом кусок дерева, которое после небольшой доработки стало походить на маленького человечка. Но, к его удивлению, Божена стала относиться к этому чурбачку, как к своему ребёнку. А «ребёнок» вскоре начал подавать признаки жизни. Сюрреалистическая экранизация французской народной сказки «Волшебное полено» о бездетной паре, которая очень хотела иметь ребёнка. Сама сказка — это некий симбиоз «Колобка» и «Франкенштейна». Одна из самых необычных экранизаций народных сказок в кинематографе. Жестокий гротеск современного общества, его идеалов и стереотипности существования. Фильм о загнанности в угол тех людей, которые не могут, не имеют возможности вписаться в общую картину благополучности навязанных норм и порядков, о том, на что они способны и как далеко могут зайти, чтобы стать «нормальными».
Доп. информация: 72-летний Ян Шванкмайер — представитель экспериментального кинематографа, он при жизни стал классиком и одним из художественных идеологов абсурдизма и сюрреализма Чешской Сюрреалистической Коммуны.
Сам режиссёр после выхода этого фильма призывал зрителей не оценивать увиденное лишь с одной приемлемой позиции, называя его многоплановым и многозначным. В фильме используются приёмы анимации, кинематографии и коллаж.


Сэмпл: http://multi-up.com/1050646
Качество видео: DVDRip-AVC
Формат видео: MKV
Видео: 720x576 (4:3) @ 768x576 (анаморф), 25.000 fps, AVC, ~2320 Kbps, 0.224 bits/pixel
Аудио: Русский, 48.0 KHz, AC3, 6 ch, 448 Kbps
Аудио 2: Чешский, 48.0 KHz, AC3, 6 ch, 448 Kbps
Формат субтитров: softsub (SRT)
Доп. информация о субтитрах: Русские, VobSub

MediaInfo

Формат : Matroska
Версия формата : Version 4 / Version 2
Размер файла : 2,84 Гбайт
Продолжительность : 2 ч. 6 м.
Общий поток : 3219 Кбит/сек
Дата кодирования : UTC 2013-05-28 18:11:59
Программа кодирования : mkvmerge v6.2.0 ('Promised Land') built on Apr 28 2013 12:22:01
Библиотека кодирования : libebml v1.3.0 + libmatroska v1.4.0
Видео
Идентификатор : 1
Формат : AVC
Формат/Информация : Advanced Video Codec
Профиль формата : High@L4.1
Параметр CABAC формата : Да
Параметр ReFrames формата : 16 кадров
Идентификатор кодека : V_MPEG4/ISO/AVC
Продолжительность : 2 ч. 6 м.
Битрейт : 2320 Кбит/сек
Ширина : 720 пикселей
Высота : 576 пикселей
Соотношение сторон : 4:3
Режим частоты кадров : Постоянный
Частота кадров : 25,000 кадров/сек
Стандарт вещания : PAL
Цветовое пространство : YUV
Субдискретизация насыщенности : 4:2:0
Битовая глубина : 8 бит
Тип развёртки : Прогрессивная
Бит/(Пиксели*Кадры) : 0.224
Размер потока : 1,99 Гбайт (70%)
Библиотека кодирования : x264 core 130 r2273 b3065e6
Настройки программы : cabac=1 / ref=16 / deblock=1:0:0 / analyse=0x3:0x133 / me=umh / subme=10 / psy=1 / psy_rd=1.05:0.10 / mixed_ref=1 / me_range=32 / chroma_me=1 / trellis=2 / 8x8dct=1 / cqm=0 / deadzone=21,11 / fast_pskip=0 / chroma_qp_offset=-3 / threads=8 / lookahead_threads=2 / sliced_threads=0 / nr=0 / decimate=0 / interlaced=0 / bluray_compat=0 / constrained_intra=0 / bframes=10 / b_pyramid=2 / b_adapt=2 / b_bias=0 / direct=3 / weightb=1 / open_gop=0 / weightp=2 / keyint=250 / keyint_min=25 / scenecut=40 / intra_refresh=0 / rc=2pass / mbtree=0 / bitrate=2320 / ratetol=1.0 / qcomp=0.60 / qpmin=0 / qpmax=69 / qpstep=4 / cplxblur=20.0 / qblur=0.5 / ip_ratio=1.40 / pb_ratio=1.30 / aq=1:1.00
Default : Нет
Forced : Нет
Коэффициенты матрицы : BT.601
colour_range : Limited
Аудио #1
Идентификатор : 2
Формат : AC-3
Формат/Информация : Audio Coding 3
Расширение режима : CM (complete main)
Параметр Endianness формата : Big
Идентификатор кодека : A_AC3
Продолжительность : 2 ч. 6 м.
Вид битрейта : Постоянный
Битрейт : 448 Кбит/сек
Каналы : 6 каналов
Расположение каналов : Front: L C R, Side: L R, LFE
Частота : 48,0 КГц
Битовая глубина : 16 бит
Метод сжатия : С потерями
Размер потока : 404 Мбайт (14%)
Язык : Russian
Default : Да
Forced : Нет
Аудио #2
Идентификатор : 3
Формат : AC-3
Формат/Информация : Audio Coding 3
Расширение режима : CM (complete main)
Параметр Endianness формата : Big
Идентификатор кодека : A_AC3
Продолжительность : 2 ч. 6 м.
Вид битрейта : Постоянный
Битрейт : 448 Кбит/сек
Каналы : 6 каналов
Расположение каналов : Front: L C R, Side: L R, LFE
Частота : 48,0 КГц
Битовая глубина : 16 бит
Метод сжатия : С потерями
Размер потока : 404 Мбайт (14%)
Язык : Czech
Default : Нет
Forced : Нет
Текст
Идентификатор : 4
Формат : VobSub
Режим смешивания : zlib
Идентификатор кодека : S_VOBSUB
Идентификатор кодека/Информация : The same subtitle format used on DVDs
Язык : Russian
Default : Нет
Forced : Нет
Меню
00:00:00.000 : en:Chapter 01
00:05:17.320 : en:Chapter 02
00:10:37.520 : en:Chapter 03
00:12:52.720 : en:Chapter 04
00:18:57.040 : en:Chapter 05
00:23:57.600 : en:Chapter 06
00:26:58.560 : en:Chapter 07
00:29:27.320 : en:Chapter 08
00:32:49.440 : en:Chapter 09
00:34:39.160 : en:Chapter 10
00:37:02.640 : en:Chapter 11
00:42:04.760 : en:Chapter 12
00:45:22.040 : en:Chapter 13
00:50:29.880 : en:Chapter 14
00:56:14.840 : en:Chapter 15
01:00:11.800 : en:Chapter 16
01:04:16.160 : en:Chapter 17
01:07:52.480 : en:Chapter 18
01:11:53.240 : en:Chapter 19
01:20:17.800 : en:Chapter 20
01:25:57.960 : en:Chapter 21
01:35:27.200 : en:Chapter 22
01:47:07.120 : en:Chapter 23
02:02:37.480 : en:Chapter 24
02:06:08.280 : en:Chapter 25

Скриншот c названием фильма

Скриншоты





[teatrix.ru].t5819.torrent 
Торрент: Зарегистрирован [ 2015-10-10 00:35 ] · EA1B0DD93E9EF1A66845A2CAE41D22A7295D92D4

Скачать .torrent

Скачать

29 KB

Статус: проверено
Скачан: 0 раз
Размер: 2.84 GB
terms.php



Быстрый ответ

Имя:

      
Для отправки сообщений необходимо включить JavaScript
Показать сообщения:    

Текущее время: 11-Дек 16:53

Часовой пояс: UTC + 3


Вы можете начинать темы
Вы можете отвечать на сообщения
Вы не можете редактировать свои сообщения
Вы не можете удалять свои сообщения
Вы не можете голосовать в опросах
Вы не можете прикреплять файлы к сообщениям
Вы можете скачивать файлы